<?xml version="1.0" standalone="no"?>
<!DOCTYPE svg PUBLIC "-//W3C//DTD SVG 1.1//EN" "http://www.w3.org/Graphics/SVG/1.1/DTD/svg11.dtd" >
<svg xmlns="http://www.w3.org/2000/svg" xmlns:xlink="http://www.w3.org/1999/xlink" version="1.1">
<metadata>
Created by FontForge 20201107 at Thu Feb 18 22:55:40 2016
 By 
Copyright (c) 2011-2016 by Omnibus-Type (www.omnibus-type.com omnibus.type@gmail.com)
</metadata>
<defs>
<font id="Chivo-LightItalic" horiz-adv-x="615" >
  <font-face 
    font-family="Chivo Light"
    font-weight="300"
    font-style="italic"
    font-stretch="normal"
    units-per-em="1000"
    panose-1="2 11 3 3 3 2 2 9 8 4"
    ascent="800"
    descent="-200"
    x-height="511"
    cap-height="686"
    bbox="-235 -250 1048 921"
    underline-thickness="50"
    underline-position="-100"
    slope="-8"
    unicode-range="U+0020-FB02"
  />
<missing-glyph horiz-adv-x="500" 
d="M500 700v-700h-500v700h500zM80 650l170 -255l170 255h-340zM220 350l-170 255v-510zM450 605l-170 -255l170 -255v510zM250 305l-170 -255h340z" />
    <glyph glyph-name="fi" unicode="fi" horiz-adv-x="564" 
d="M72 465l6 46h56l15 106q8 55 39.5 83t78.5 28q18 0 36 -4.5t29 -12.5l-6 -45q-12 6 -30.5 11t-29.5 5q-26 0 -43.5 -13.5t-22.5 -53.5l-15 -104h119l-6 -46h-119l-76 -540q-16 -111 -118 -111q-18 0 -36 4.5t-29 12.5l6 45q12 -6 30.5 -11t29.5 -5q26 0 43.5 13.5
t22.5 53.5l76 538h-56zM509 720l-7 -54h-59l7 54h59zM425 511h51l-72 -511h-51z" />
    <glyph glyph-name="fl" unicode="fl" horiz-adv-x="562" 
d="M72 465l6 46h56l15 106q8 55 39.5 83t78.5 28q18 0 36 -4.5t29 -12.5l-6 -45q-12 6 -30.5 11t-29.5 5q-26 0 -43.5 -13.5t-22.5 -53.5l-15 -104h119l-6 -46h-119l-76 -540q-16 -111 -118 -111q-18 0 -36 4.5t-29 12.5l6 45q12 -6 30.5 -11t29.5 -5q26 0 43.5 13.5
t22.5 53.5l76 538h-56zM458 720h51l-101 -720h-51z" />
    <glyph glyph-name=".notdef" horiz-adv-x="500" 
d="M500 700v-700h-500v700h500zM80 650l170 -255l170 255h-340zM220 350l-170 255v-510zM450 605l-170 -255l170 -255v510zM250 305l-170 -255h340z" />
    <glyph glyph-name=".null" horiz-adv-x="0" 
 />
    <glyph glyph-name="nonmarkingreturn" horiz-adv-x="333" 
 />
    <glyph glyph-name="space" unicode=" " horiz-adv-x="244" 
 />
    <glyph glyph-name="exclam" unicode="!" horiz-adv-x="269" 
d="M205 686l-89 -545h-41l66 545h64zM118 69l-10 -69h-65l10 69h65z" />
    <glyph glyph-name="quotedbl" unicode="&#x22;" horiz-adv-x="363" 
d="M126 686h52l-21 -147l-29 -125h-30l7 125zM259 686h52l-21 -147l-29 -125h-30l7 125z" />
    <glyph glyph-name="numbersign" unicode="#" horiz-adv-x="644" 
d="M433 246h126l-8 -58h-139l-68 -188h-58l68 188h-166l-68 -188h-58l68 188h-116l8 58h129l64 174h-130l8 58h143l79 218h59l-80 -218h166l79 218h59l-80 -218h113l-8 -58h-126zM375 246l64 174h-166l-64 -174h166z" />
    <glyph glyph-name="dollar" unicode="$" horiz-adv-x="546" 
d="M87.5 58.5q-54.5 36.5 -54.5 112.5q0 13 1.5 27t3.5 20h51q-2 -8 -4 -21t-2 -25q0 -103 176 -103q94 0 153.5 33t59.5 115q0 37 -23.5 59.5t-58.5 34.5t-93 26q-67 16 -107 31t-68 44.5t-28 78.5q0 87 66.5 132.5t167.5 48.5v90h53l-23 -90q87 -2 139 -36.5t52 -103.5
q0 -10 -4 -38h-50q4 26 4 36q0 47 -44.5 71t-116.5 24q-83 0 -136.5 -29t-53.5 -95q0 -33 22.5 -54t56.5 -32.5t90 -24.5q69 -17 110 -32.5t70 -46t29 -81.5q0 -107 -75 -158t-185 -53v-85h-52l21 85q-93 3 -147.5 39.5z" />
    <glyph glyph-name="percent" unicode="%" horiz-adv-x="700" 
d="M257.5 367q-35.5 -31 -92.5 -31q-49 0 -77 28.5t-28 72.5q0 12 1 19l16 110q9 59 44.5 89.5t92.5 30.5q49 0 76.5 -28.5t27.5 -72.5q0 -13 -1 -19l-16 -110q-8 -58 -43.5 -89zM75 0l514 686h59l-513 -686h-60zM268 583q0 26 -15.5 41.5t-45.5 15.5q-32 0 -54 -20t-26 -50
l-16 -118q-1 -4 -1 -12q0 -25 16.5 -41.5t44.5 -16.5q33 0 54.5 20t25.5 50l16 118q1 4 1 13zM600 30q-36 -31 -93 -31q-49 0 -76.5 28.5t-27.5 72.5q0 12 1 19l16 110q8 57 43.5 88.5t92.5 31.5q49 0 77 -28.5t28 -72.5q0 -13 -1 -19l-16 -110q-8 -58 -44 -89zM611 246
q0 26 -15.5 41.5t-45.5 15.5q-32 0 -54 -20t-26 -50l-16 -118q-1 -4 -1 -12q0 -25 16.5 -41.5t44.5 -16.5q33 0 54.5 20t25.5 50l16 118q1 4 1 13z" />
    <glyph glyph-name="ampersand" unicode="&#x26;" horiz-adv-x="661" 
d="M344 648q-45 0 -85 -16.5t-64.5 -50t-24.5 -81.5q0 -61 42.5 -93t107.5 -32h131l41 163h33l-23 -163h119l-6 -46h-119l-46 -329h-187q-89 0 -147 44t-58 120q0 78 41.5 124t109.5 64v4q-46 26 -69.5 56.5t-23.5 81.5q0 63 32.5 108.5t86 69.5t115.5 24q40 0 77 -8l-7 -50
q-33 10 -76 10zM167.5 289.5q-57.5 -39.5 -57.5 -120.5q0 -58 44 -90.5t115 -32.5h136l40 283h-136q-84 0 -141.5 -39.5z" />
    <glyph glyph-name="quotesingle" unicode="'" horiz-adv-x="209" 
d="M126 686h52l-21 -147l-29 -125h-30l7 125z" />
    <glyph glyph-name="parenleft" unicode="(" horiz-adv-x="289" 
d="M278 686h29q-90 -113 -146 -245.5t-56 -267.5q0 -89 22.5 -172.5t60.5 -157.5h-29q-51 70 -78 155.5t-27 178.5q0 280 224 509z" />
    <glyph glyph-name="parenright" unicode=")" horiz-adv-x="289" 
d="M-4 -157h-29q89 113 145 245t56 265q0 89 -22.5 174.5t-60.5 158.5h29q52 -70 79 -156.5t27 -178.5q0 -278 -224 -508z" />
    <glyph glyph-name="asterisk" unicode="*" horiz-adv-x="469" 
d="M369 347l-54 -36l-71 151l-110 -147l-45 35l134 132l-164 42l28 58l151 -70l12 174h62l-42 -176l173 68l9 -59l-177 -39z" />
    <glyph glyph-name="plus" unicode="+" 
d="M562 284l-9 -58h-227l-31 -226h-58l31 226h-227l9 58h227l31 227h58l-31 -227h227z" />
    <glyph glyph-name="comma" unicode="," horiz-adv-x="237" 
d="M42.5 -50.5q12.5 34.5 18.5 50.5h-24l9 69h65l-8 -58l-45 -112h-34q6 16 18.5 50.5z" />
    <glyph glyph-name="hyphen" unicode="-" horiz-adv-x="390" 
d="M321 299l-9 -62h-252l8 62h253z" />
    <glyph glyph-name="period" unicode="." horiz-adv-x="238" 
d="M103 69l-9 -69h-65l9 69h65z" />
    <glyph glyph-name="slash" unicode="/" horiz-adv-x="489" 
d="M-45 -171l610 857h59l-609 -857h-60z" />
    <glyph glyph-name="zero" unicode="0" 
d="M438 49.5q-67 -59.5 -171 -59.5q-87 0 -140 50t-53 133q0 19 3 38l37 264q14 101 82 161t170 60q87 0 140 -50t53 -134q0 -17 -3 -37l-37 -264q-14 -102 -81 -161.5zM505 506q0 63 -40.5 102.5t-105.5 39.5q-48 0 -89 -21.5t-68 -60t-33 -85.5l-39 -276q-2 -18 -2 -25
q0 -63 40.5 -102.5t105.5 -39.5q47 0 88 21.5t68 60t34 85.5l39 276q2 18 2 25z" />
    <glyph glyph-name="one" unicode="1" 
d="M64 48h195l81 571h-195l4 34l21 3q121 13 211 40h23l-91 -648h195l-6 -48h-444z" />
    <glyph glyph-name="two" unicode="2" 
d="M72.5 123q29.5 38 88.5 73l221 131q49 29 81.5 75t32.5 110q0 62 -37 99t-105 37q-81 0 -134 -55t-63 -139h-54q7 71 42.5 126t91.5 85.5t123 30.5q89 0 140 -50.5t51 -129.5q0 -84 -42.5 -139.5t-108.5 -95.5l-231 -137q-62 -37 -73 -96h395l-6 -48h-454l3 23
q9 62 38.5 100z" />
    <glyph glyph-name="three" unicode="3" 
d="M110 158q0 -57 42.5 -89.5t114.5 -32.5q55 0 100.5 20t72.5 58t27 90q0 60 -44.5 91.5t-114.5 31.5h-77l7 48h72q49 0 92 17.5t69 53.5t26 87q0 57 -40 86t-104 29q-71 0 -121.5 -36.5t-59.5 -100.5l-2 -14h-53l2 14q8 57 42.5 99t86.5 64t112 22q85 0 138.5 -41
t53.5 -115t-35.5 -114t-101.5 -71v-4q48 -15 76.5 -50t28.5 -89q0 -68 -34 -118t-93 -77t-132 -27q-91 0 -147.5 44.5t-56.5 118.5q0 19 2 29l2 17h53l-2 -18q-2 -16 -2 -23z" />
    <glyph glyph-name="four" unicode="4" 
d="M470 573h19l-47 -338h82l-7 -48h-82l-26 -187h-56l26 187h-346l7 48q24 25 81.5 106.5t118.5 179.5t100 175h56q-39 -84 -96 -178.5t-112.5 -172t-90.5 -110.5h289l36 257q29 45 48 81z" />
    <glyph glyph-name="five" unicode="5" 
d="M126 181q0 -63 40.5 -103t111.5 -40q52 0 95 28.5t67 75.5t24 100q0 65 -41 107.5t-103 42.5q-47 0 -92 -24.5t-72 -64.5l-47 7l80 376h363l-7 -54h-313l-54 -250q35 29 75.5 44t80.5 15q84 0 134.5 -51t50.5 -135q0 -70 -30.5 -130.5t-86.5 -97.5t-130 -37
q-63 0 -108.5 24t-69 66t-23.5 95q0 18 3 36h54q-2 -10 -2 -30z" />
    <glyph glyph-name="six" unicode="6" 
d="M241.5 405.5q50.5 23.5 103.5 23.5q54 0 96 -23t65 -65t23 -95q0 -75 -34 -133.5t-92 -90.5t-128 -32q-87 0 -140 50t-53 133q0 19 3 38l37 264q9 66 44 116t88 77.5t116 27.5q85 0 135 -49t50 -132q0 -19 -3 -40h-52q3 23 3 33q0 62 -38 101t-102 39q-72 0 -123.5 -47
t-62.5 -120l-20 -140q34 41 84.5 64.5zM233.5 354.5q-44.5 -26.5 -71 -72.5t-26.5 -102q0 -63 40.5 -102.5t105.5 -39.5q53 0 97 26.5t70 73t26 103.5q0 62 -40 101t-105 39q-52 0 -96.5 -26.5z" />
    <glyph glyph-name="seven" unicode="7" 
d="M334.5 339.5q-104.5 -169.5 -115.5 -339.5h-62q25 178 123 339.5t224 292.5h-389l8 54h471l-5 -30q-150 -147 -254.5 -316.5z" />
    <glyph glyph-name="eight" unicode="8" 
d="M500 299q26 -32 26 -84q0 -67 -31 -118t-89 -79t-137 -28q-95 0 -149.5 41t-54.5 119q0 80 41 130.5t108 71.5v4q-39 21 -59 49.5t-20 74.5q0 66 30 114.5t83 75t120 26.5q84 0 132.5 -40.5t48.5 -112.5q0 -74 -33 -117t-91 -70v-4q49 -21 75 -53zM275 629.5
q-39 -18.5 -62.5 -54.5t-23.5 -85q0 -53 37 -83.5t96 -30.5q46 0 85.5 19t63 55t23.5 87q0 53 -35.5 82t-98.5 29q-46 0 -85 -18.5zM417 81.5q55 43.5 55 125.5q0 57 -41 89t-115 32q-89 0 -142.5 -47t-53.5 -124q0 -57 38.5 -88t117.5 -31q86 0 141 43.5z" />
    <glyph glyph-name="nine" unicode="9" 
d="M392.5 281q-50.5 -24 -103.5 -24q-54 0 -96 23t-65.5 64.5t-23.5 95.5q0 74 35 132.5t93.5 91t126.5 32.5q87 0 140 -50t53 -134q0 -17 -40 -301q-14 -101 -81.5 -161t-168.5 -60q-86 0 -136.5 49t-50.5 132q0 19 3 40h52q-3 -22 -3 -33q0 -62 38.5 -101t103.5 -39
q72 0 124.5 47.5t63.5 119.5l20 141q-34 -41 -84.5 -65zM401 332.5q45 27.5 71 73.5t26 100q0 63 -40.5 102.5t-105.5 39.5q-54 0 -98 -26.5t-69.5 -73t-25.5 -103.5q0 -62 40 -101t105 -39q52 0 97 27.5z" />
    <glyph glyph-name="colon" unicode=":" horiz-adv-x="238" 
d="M164 511l-9 -69h-65l9 69h65zM102 69l-9 -69h-65l9 69h65z" />
    <glyph glyph-name="semicolon" unicode=";" horiz-adv-x="238" 
d="M175 511l-10 -69h-65l10 69h65zM43.5 -50.5q12.5 34.5 18.5 50.5h-24l9 69h65l-8 -58l-46 -112h-34q7 16 19.5 50.5z" />
    <glyph glyph-name="less" unicode="&#x3c;" 
d="M580 495l-8 -62l-487 -179l436 -179l-8 -62l-482 197l13 88z" />
    <glyph glyph-name="equal" unicode="=" 
d="M67 386h500l-8 -58h-500zM38 178h500l-8 -58h-500z" />
    <glyph glyph-name="greater" unicode="&#x3e;" 
d="M21 13l8 62l488 179l-437 179l8 62l482 -197l-13 -88z" />
    <glyph glyph-name="question" unicode="?" horiz-adv-x="502" 
d="M196 166l11 78q5 38 27.5 64t64.5 58q34 26 55 46.5t35.5 50.5t14.5 71q0 46 -26 80t-94 34q-90 0 -128.5 -51.5t-45.5 -102.5q-1 -9 -1 -17.5v-11.5h-54q0 21 2 33q4 32 23.5 76.5t70 83.5t138.5 39q99 0 134 -49.5t35 -108.5q0 -50 -16 -86.5t-39 -59.5t-60 -53
q-39 -30 -59 -53t-25 -56l-9 -65h-54zM241 69l-9 -69h-65l9 69h65z" />
    <glyph glyph-name="at" unicode="@" horiz-adv-x="887" 
d="M762 120q36 54 51.5 129t15.5 141q0 260 -293 260q-124 0 -220 -54t-151 -162.5t-55 -266.5q0 -137 70.5 -205t216.5 -68q36 0 89 9.5t80 22.5l-7 -52q-32 -11 -83.5 -19t-85.5 -8q-159 0 -244.5 77.5t-85.5 237.5q0 155 55 276t164 190t265 69q154 0 244.5 -73.5
t90.5 -225.5q0 -111 -26.5 -196t-75 -132t-111.5 -47q-44 0 -62 17t-18 50q0 7 2 25q-70 -93 -194 -93q-60 0 -99 24.5t-39 83.5q0 78 45.5 117t120 50.5t194.5 11.5l8 61q2 20 2 29q0 43 -27.5 61t-88.5 18q-64 0 -105 -23.5t-48 -74.5l-2 -15h-48q0 73 59 114.5t150 41.5
q81 0 121 -28.5t40 -86.5q0 -20 -26 -196q-16 -105 -16 -116q0 -28 35 -28q56 0 92 54zM441 259q-62 -8 -98 -36t-36 -86q0 -37 25.5 -54.5t77.5 -17.5q44 0 85.5 18.5t71 56.5t38.5 94l5 33q-107 0 -169 -8z" />
    <glyph glyph-name="A" unicode="A" horiz-adv-x="650" 
d="M113 170l-94 -170h-55l380 686h50l187 -686h-59l-47 170h-362zM462 219l-104 393h-4l-214 -393h322z" />
    <glyph glyph-name="B" unicode="B" horiz-adv-x="652" 
d="M422 686q45 0 80.5 -19.5t56 -52.5t20.5 -74q0 -78 -45 -123t-99 -58l-1 -6q40 -6 77.5 -37t37.5 -100q0 -57 -29.5 -107t-80 -79.5t-108.5 -29.5h-280l97 686h274zM443.5 394.5q35.5 20.5 57 55.5t21.5 76q0 49 -33 80.5t-84 31.5h-210l-37 -264h210q40 0 75.5 20.5z
M411 69q37 21 60 57.5t23 79.5q0 51 -35 85.5t-88 34.5h-220l-39 -278h220q42 0 79 21z" />
    <glyph glyph-name="C" unicode="C" horiz-adv-x="662" 
d="M466.5 50q-79.5 -60 -191.5 -60q-104 0 -161 51.5t-57 181.5q0 51 11 133q25 192 103.5 266t202.5 74q222 0 222 -200q0 -25 -5 -62h-53q4 25 4 52q0 162 -175 162q-98 0 -160 -60.5t-84 -219.5q-13 -91 -13 -141q0 -106 44.5 -147.5t127.5 -41.5q201 0 231 213h53
q-20 -141 -99.5 -201z" />
    <glyph glyph-name="D" unicode="D" horiz-adv-x="677" 
d="M148 686h220q105 0 165.5 -54t60.5 -182q0 -44 -10 -119q-23 -181 -104.5 -256t-208.5 -75h-220zM441.5 109q65.5 61 87.5 213q12 85 12 119q0 107 -46.5 152t-133.5 45h-166l-83 -590h166q98 0 163.5 61z" />
    <glyph glyph-name="E" unicode="E" horiz-adv-x="592" 
d="M148 686h424l-13 -48h-364l-37 -264h319l-7 -48h-319l-39 -278h369v-48h-430z" />
    <glyph glyph-name="F" unicode="F" horiz-adv-x="552" 
d="M195 638l-37 -264h293l-7 -48h-293l-46 -326h-54l97 686h406l-13 -48h-346z" />
    <glyph glyph-name="G" unicode="G" horiz-adv-x="675" 
d="M291 303l6 47h282l-32 -231q-6 -44 -8.5 -77t-2.5 -42h-37q-1 6 -2 29.5t-1 62.5q-35 -52 -91.5 -77t-119.5 -25q-109 0 -168.5 51t-59.5 182q0 51 11 133q25 192 103.5 266t202.5 74q99 0 161 -43.5t62 -148.5q0 -28 -4 -55h-53q3 24 3 45q0 84 -49 119t-127 35
q-98 0 -160 -60.5t-84 -219.5q-13 -91 -13 -141q0 -106 47 -147.5t135 -41.5q83 0 146 48t78 165l7 52h-232z" />
    <glyph glyph-name="H" unicode="H" horiz-adv-x="693" 
d="M522 326h-371l-46 -326h-54l97 686h54l-44 -312h371l44 312h54l-97 -686h-54z" />
    <glyph glyph-name="I" unicode="I" horiz-adv-x="365" 
d="M321 686l-7 -49h-79l-83 -588h79l-7 -49h-212l7 49h79l83 588h-79l7 49h212z" />
    <glyph glyph-name="J" unicode="J" horiz-adv-x="525" 
d="M61 146q0 -55 33 -81.5t89 -26.5q62 0 105.5 33.5t52.5 100.5l72 514h54l-73 -520q-12 -85 -70 -130.5t-147 -45.5q-75 0 -121 37.5t-46 107.5q0 20 5 50h50q-4 -22 -4 -39z" />
    <glyph glyph-name="K" unicode="K" horiz-adv-x="621" 
d="M202 686l-57 -407l420 407h64l-309 -299l220 -387h-68l-195 346l-142 -138l-30 -208h-54l97 686h54z" />
    <glyph glyph-name="L" unicode="L" horiz-adv-x="532" 
d="M148 686h54l-90 -638h342v-48h-403z" />
    <glyph glyph-name="M" unicode="M" horiz-adv-x="938" 
d="M796 625h-5l-363 -625h-51l-185 625h-5l-88 -625h-48l97 686h86l180 -616h4l356 616h85l-97 -686h-54z" />
    <glyph glyph-name="N" unicode="N" horiz-adv-x="694" 
d="M185 583h-4l-82 -583h-48l97 686h46l299 -583h4l82 583h48l-97 -686h-48z" />
    <glyph glyph-name="O" unicode="O" horiz-adv-x="690" 
d="M117 42.5q-60 52.5 -60 185.5q0 49 11 128q25 191 107 265.5t207 74.5q106 0 166 -52.5t60 -185.5q0 -40 -11 -128q-24 -191 -106 -265.5t-208 -74.5q-106 0 -166 52.5zM455 99q65 61 87 219q13 97 13 136q0 108 -48 151t-132 43q-99 0 -164 -61t-88 -219
q-13 -89 -13 -136q0 -108 47.5 -151t132.5 -43q100 0 165 61z" />
    <glyph glyph-name="P" unicode="P" horiz-adv-x="626" 
d="M148 686h281q46 0 83 -21t58 -57.5t21 -81.5q0 -57 -28 -106.5t-77.5 -78.5t-109.5 -29h-227l-44 -312h-54zM459 380.5q37 21.5 58 58.5t21 80q0 51 -35 85t-88 34h-220l-39 -279h220q46 0 83 21.5z" />
    <glyph glyph-name="Q" unicode="Q" horiz-adv-x="690" 
d="M291.5 -100q-30.5 37 -30.5 91q-97 4 -150.5 57.5t-53.5 179.5q0 49 11 128q25 191 107 265.5t207 74.5q106 0 166 -52.5t60 -185.5q0 -40 -11 -128q-23 -180 -97.5 -256t-188.5 -83q2 -34 24 -57.5t73 -23.5q21 0 47.5 6.5t46 13t24.5 9.5l-7 -49q-4 -2 -20.5 -8.5
t-42.5 -12.5t-54 -6q-80 0 -110.5 37zM455 99q65 61 87 219q13 97 13 136q0 108 -48 151t-132 43q-99 0 -164 -61t-88 -219q-13 -89 -13 -136q0 -108 47.5 -151t132.5 -43q100 0 165 61z" />
    <glyph glyph-name="R" unicode="R" horiz-adv-x="670" 
d="M548.5 -1.5q-7.5 -1.5 -16.5 -1.5q-63 0 -63 88q0 16 4 52q1 10 2 22.5t1 26.5q0 84 -34 112t-71 28h-221l-45 -326h-54l96 686h279q76 0 122 -42t46 -113q0 -40 -20 -78.5t-54 -65t-74 -33.5v-5q0 4 24 -9t43 -45.5t19 -90.5q0 -22 -6 -68q-4 -40 -4 -49q0 -33 8 -45
t17.5 -16t12.5 -6l-2 -19q-2 -1 -9.5 -2.5zM455.5 394q37.5 20 60.5 54t23 73q0 55 -31.5 86t-85.5 31h-228l-37 -264h220q41 0 78.5 20z" />
    <glyph glyph-name="S" unicode="S" horiz-adv-x="629" 
d="M508 542q0 51 -44.5 78.5t-115.5 27.5q-83 0 -138 -34t-55 -106q0 -36 22.5 -58.5t56 -35t90.5 -27.5q68 -18 109 -35t70 -49.5t29 -85.5q0 -80 -38.5 -130.5t-100.5 -73.5t-134 -23q-101 0 -162 38t-61 123q0 14 2 30.5t4 23.5h51q-2 -6 -4.5 -23t-2.5 -27q0 -61 48 -89
t128 -28q92 0 153.5 39t61.5 128q0 39 -23.5 64t-58.5 38.5t-94 30.5q-65 17 -104.5 33.5t-67 47.5t-27.5 81q0 66 34.5 110t92 65t125.5 21q92 0 148 -36.5t56 -113.5q0 -19 -4 -43h-50q4 28 4 39z" />
    <glyph glyph-name="T" unicode="T" horiz-adv-x="575" 
d="M261 0h-52l90 638h-232l7 48h516l-7 -48h-232z" />
    <glyph glyph-name="U" unicode="U" horiz-adv-x="682" 
d="M554 220q-10 -69 -47 -121t-95 -80.5t-129 -28.5q-97 0 -153 51.5t-56 138.5q0 33 28.5 233.5t39.5 272.5h54l-43 -306q-5 -33 -12.5 -84.5t-10 -75.5t-2.5 -33q0 -69 41.5 -109t119.5 -40q87 0 143 50.5t68 133.5l65 464h54z" />
    <glyph glyph-name="V" unicode="V" horiz-adv-x="602" 
d="M626 686l-356 -686h-48l-163 686h59l140 -600h5l310 600h53z" />
    <glyph glyph-name="W" unicode="W" horiz-adv-x="914" 
d="M901 686l-297 -686h-46l-87 581h-4l-251 -581h-46l-103 686h58l85 -579h4l249 579h50l85 -579h4l249 579h50z" />
    <glyph glyph-name="X" unicode="X" horiz-adv-x="628" 
d="M539 0h-65l-176 315h-4l-268 -315h-58l305 359l-186 327h65l158 -284h4l241 284h59l-279 -327z" />
    <glyph glyph-name="Y" unicode="Y" horiz-adv-x="570" 
d="M252 0h-54l38 266l-187 420h63l158 -365h5l265 365h55l-305 -420z" />
    <glyph glyph-name="Z" unicode="Z" horiz-adv-x="595" 
d="M-5 25l499 613h-389l7 48h471l-4 -24l-500 -614h422l-7 -48h-503z" />
    <glyph glyph-name="bracketleft" unicode="[" horiz-adv-x="294" 
d="M141 686h141l-5 -38h-88l-109 -771h88l-5 -38h-141z" />
    <glyph glyph-name="backslash" unicode="\" horiz-adv-x="593" 
d="M68 686h60l295 -686h-60z" />
    <glyph glyph-name="bracketright" unicode="]" horiz-adv-x="294" 
d="M-19 -123h88l109 771h-88l5 38h141l-119 -847h-141z" />
    <glyph glyph-name="asciicircum" unicode="^" horiz-adv-x="596" 
d="M494 0h-62l-114 464l-244 -464h-62l268 511h88z" />
    <glyph glyph-name="underscore" unicode="_" horiz-adv-x="687" 
d="M43 -64h500l-9 -58h-499z" />
    <glyph glyph-name="grave" unicode="`" horiz-adv-x="333" 
d="M76 717l1 3h65l75 -145h-50z" />
    <glyph glyph-name="a" unicode="a" horiz-adv-x="607" 
d="M387 69q-66 -79 -175 -79q-77 0 -123.5 50t-46.5 150q0 83 26 158.5t81 124t138 48.5q53 0 92 -21.5t59 -59.5h4l24 71h33q-10 -69 -36 -255.5t-26 -194.5q0 -25 23 -25t53 16l-6 -43q-30 -19 -63 -19q-31 0 -44.5 18t-13.5 47q0 9 1 14zM335.5 77.5q43.5 41.5 63 106
t19.5 137.5q0 77 -36.5 115.5t-96.5 38.5q-67 0 -110 -42.5t-62.5 -107t-19.5 -132.5q0 -82 35 -119.5t96 -37.5q68 0 111.5 41.5z" />
    <glyph glyph-name="b" unicode="b" horiz-adv-x="582" 
d="M230 499.5q46 21.5 99 21.5q77 0 124.5 -52t47.5 -145q0 -75 -25.5 -152t-81 -129.5t-140.5 -52.5q-117 0 -160 95l-31 -85h-21l101 720h51l-40 -280q30 38 76 59.5zM206.5 434q-43.5 -41 -63.5 -105t-20 -137q0 -83 36 -119.5t97 -36.5q52 0 96 32.5t70.5 97t26.5 156.5
q0 76 -36.5 114.5t-95.5 38.5q-67 0 -110.5 -41z" />
    <glyph glyph-name="c" unicode="c" horiz-adv-x="546" 
d="M410.5 85.5q-32.5 -46.5 -81 -71t-105.5 -24.5q-84 0 -133 52.5t-49 148.5q0 84 28 159.5t86 123t142 47.5q78 0 125.5 -44.5t47.5 -125.5q0 -24 -2 -37h-50q2 22 2 32q0 63 -36 96t-94 33q-68 0 -112.5 -41.5t-65 -106t-20.5 -135.5q0 -76 38 -116t100 -40
q65 0 112.5 41t58.5 120h50q-9 -65 -41.5 -111.5z" />
    <glyph glyph-name="d" unicode="d" horiz-adv-x="612" 
d="M387 69q-66 -79 -175 -79q-77 0 -123.5 50t-46.5 150q0 83 26 158.5t81 124t138 48.5q53 0 92 -21.5t59 -59.5l40 280h51q-14 -101 -53 -376t-39 -283q0 -25 23 -25t53 16l-6 -43q-30 -19 -63 -19q-31 0 -44.5 18t-13.5 47q0 9 1 14zM335.5 77.5q43.5 41.5 63 106
t19.5 137.5q0 77 -36.5 115.5t-96.5 38.5q-67 0 -110 -42.5t-62.5 -107t-19.5 -132.5q0 -82 35 -119.5t96 -37.5q68 0 111.5 41.5z" />
    <glyph glyph-name="e" unicode="e" horiz-adv-x="556" 
d="M375.5 42.5q-61.5 -52.5 -152.5 -52.5q-84 0 -133 52.5t-49 148.5q0 83 28 158.5t85.5 123.5t142.5 48q78 0 125.5 -44.5t47.5 -125.5q0 -17 -3 -49t-8 -52h-362q-5 -32 -5 -58q0 -76 38 -116t100 -40q67 0 113 38.5t57 114.5h50q-13 -94 -74.5 -146.5zM172.5 429
q-50.5 -46 -68.5 -133h311q5 29 5 50q0 63 -36 96t-94 33q-67 0 -117.5 -46z" />
    <glyph glyph-name="f" unicode="f" horiz-adv-x="340" 
d="M72 465l6 46h56l15 106q8 55 39.5 83t78.5 28q18 0 36 -4.5t29 -12.5l-6 -45q-12 6 -30.5 11t-29.5 5q-26 0 -43.5 -13.5t-22.5 -53.5l-15 -104h119l-6 -46h-119l-76 -540q-16 -111 -118 -111q-18 0 -36 4.5t-29 12.5l6 45q12 -6 30.5 -11t29.5 -5q26 0 43.5 13.5
t22.5 53.5l76 538h-56z" />
    <glyph glyph-name="g" unicode="g" horiz-adv-x="583" 
d="M115 -110q42 -29 100 -29q65 0 112 38t57 109l12 83q-31 -38 -78 -59.5t-100 -21.5q-76 0 -124 49.5t-48 136.5q0 81 26.5 155.5t82.5 122t138 47.5q117 0 160 -95l31 85h21l-70 -494q-13 -95 -69 -149t-158 -54q-64 0 -106 24.5t-61.5 62t-19.5 77.5h52q0 -59 42 -88z
M341.5 94q43.5 38 63 98t19.5 127q0 83 -36 119.5t-97 36.5q-67 0 -110 -40.5t-63 -103t-20 -132.5q0 -71 36 -107t96 -36q68 0 111.5 38z" />
    <glyph glyph-name="h" unicode="h" horiz-adv-x="593" 
d="M416 158q14 100 19.5 141t5.5 55q0 61 -32 91t-92 30q-44 0 -83 -21t-65 -58t-32 -82l-44 -314h-51l101 720h51l-39 -281q30 39 78 60.5t95 21.5q75 0 120.5 -38.5t45.5 -114.5q0 -18 -3 -45t-13 -92q-6 -37 -33 -231h-51z" />
    <glyph glyph-name="i" unicode="i" horiz-adv-x="260" 
d="M198 720l-7 -54h-59l7 54h59zM114 511h51l-72 -511h-51z" />
    <glyph glyph-name="j" unicode="j" horiz-adv-x="260" 
d="M202 720l-7 -54h-59l7 54h59zM169 511l-83 -586q-8 -56 -39 -83.5t-77 -27.5q-18 0 -36 4.5t-30 12.5l7 45q12 -6 30 -11t29 -5q25 0 43 13.5t23 53.5l82 584h51z" />
    <glyph glyph-name="k" unicode="k" horiz-adv-x="534" 
d="M111 127l-18 -127h-51l101 720h51l-75 -534l336 325h63l-249 -241l194 -270h-66l-167 232z" />
    <glyph glyph-name="l" unicode="l" horiz-adv-x="268" 
d="M147 720h51l-101 -720h-51z" />
    <glyph glyph-name="m" unicode="m" horiz-adv-x="867" 
d="M725 483q41 -38 41 -112q0 -20 -3 -47t-13 -92l-33 -232h-51q1 5 34 243q8 53 11 77t3 41q0 114 -106 114q-60 0 -104.5 -46t-54.5 -115l-44 -314h-51q-7 -49 33 234q8 59 11.5 85.5t3.5 41.5q0 114 -106 114q-60 0 -104.5 -46t-54.5 -115l-44 -314h-51l72 511h35v-76
q28 40 70 63t87 23q51 0 88.5 -22t53.5 -65q27 37 72 62t98 25q66 0 107 -38z" />
    <glyph glyph-name="n" unicode="n" horiz-adv-x="593" 
d="M441 354q0 61 -32 91t-92 30q-44 0 -83 -21t-65 -58t-32 -82l-44 -314h-51l72 511h34v-76q32 40 80.5 63t99.5 23q75 0 120 -38.5t45 -114.5q0 -13 -4 -46t-11.5 -85.5l-11.5 -80.5l-22 -156h-50q47 335 47 354z" />
    <glyph glyph-name="o" unicode="o" horiz-adv-x="576" 
d="M90.5 43q-49.5 53 -49.5 149q0 84 28.5 159.5t87 122.5t143.5 47t134.5 -53t49.5 -149q0 -84 -28.5 -159.5t-87 -122.5t-143.5 -47t-134.5 53zM345.5 76.5q45.5 40.5 66.5 104.5t21 136q0 77 -38.5 117.5t-101.5 40.5q-68 0 -113.5 -41.5t-66.5 -105.5t-21 -135
q0 -77 38.5 -117t101.5 -40q68 0 113.5 40.5z" />
    <glyph glyph-name="p" unicode="p" horiz-adv-x="583" 
d="M330 521q77 0 123.5 -50t46.5 -150q0 -83 -25.5 -158.5t-80.5 -124t-139 -48.5q-53 0 -92 21.5t-59 59.5l-36 -252h-51l97 692h34l1 -77q68 87 181 87zM206 432q-44 -43 -63.5 -107.5t-19.5 -134.5q0 -77 37 -115.5t97 -38.5q66 0 109.5 41t63 105t19.5 135
q0 83 -35.5 120.5t-95.5 37.5q-68 0 -112 -43z" />
    <glyph glyph-name="q" unicode="q" horiz-adv-x="582" 
d="M310.5 11.5q-45.5 -21.5 -98.5 -21.5q-77 0 -124.5 51.5t-47.5 144.5q0 80 27 157t82.5 127.5t137.5 50.5q117 0 160 -95l31 85h21l-97 -691h-51l36 251q-31 -38 -76.5 -59.5zM335.5 77q43.5 41 63 105t19.5 137q0 83 -36 119.5t-97 36.5q-66 0 -109.5 -42t-63.5 -107
t-20 -137q0 -76 36 -114.5t96 -38.5q68 0 111.5 41z" />
    <glyph glyph-name="r" unicode="r" horiz-adv-x="489" 
d="M397 368q0 44 -25 75.5t-83 31.5q-46 0 -78.5 -24.5t-50 -59.5t-22.5 -67l-45 -324h-51l72 511h34v-76q0 4 19 26t54 41t84 19q70 0 106 -38.5t36 -99.5q0 -15 -3 -35.5t-4 -19.5h-47q4 24 4 40z" />
    <glyph glyph-name="s" unicode="s" horiz-adv-x="536" 
d="M75 128q0 -45 40 -68.5t112 -23.5q74 0 117 31.5t43 81.5q0 30 -19 48t-47.5 27t-76.5 18q-56 12 -90 23.5t-58 36.5t-24 69q0 42 23.5 76t71 54t115.5 20q62 0 102 -18t58 -45.5t18 -58.5q0 -9 -1.5 -19t-2.5 -11h-50q0 1 1.5 9t1.5 17q0 31 -28 55.5t-105 24.5
q-92 0 -122 -34t-30 -65q0 -28 18.5 -44.5t45.5 -25t74 -18.5q58 -12 93 -24t59.5 -38t24.5 -71q0 -87 -62.5 -126t-159.5 -39q-71 0 -114.5 20t-61.5 49t-18 59q0 20 6 39h50q-4 -12 -4 -29z" />
    <glyph glyph-name="t" unicode="t" horiz-adv-x="344" 
d="M153 -10q-41 0 -64.5 21.5t-23.5 64.5q0 7 2 25l51 364h-56l7 46h56l41 163h33l-23 -163h119l-7 -46h-119l-51 -362q-2 -14 -2 -19q0 -29 13.5 -38.5t36.5 -9.5q11 0 30.5 5t33.5 11l-6 -45q-32 -17 -71 -17z" />
    <glyph glyph-name="u" unicode="u" horiz-adv-x="617" 
d="M318.5 13q-47.5 -23 -97.5 -23q-75 0 -119 38t-44 114q0 29 20.5 173.5t28.5 195.5h51q-47 -317 -47 -354q0 -64 31.5 -92.5t92.5 -28.5q44 0 83 21t65 58t32 82l44 314h51q-10 -69 -36.5 -255.5t-26.5 -194.5q0 -25 23 -25t53 16l-6 -43q-30 -19 -63 -19q-31 0 -44.5 18
t-13.5 47q0 7 2 21q-32 -40 -79.5 -63z" />
    <glyph glyph-name="v" unicode="v" horiz-adv-x="512" 
d="M178 0l-135 511h55l113 -437h4l236 437h50l-278 -511h-45z" />
    <glyph glyph-name="w" unicode="w" horiz-adv-x="809" 
d="M156 0l-106 511h53l86 -418h4l203 418h59l86 -418h4l203 418h49l-249 -511h-40l-92 446h-4l-216 -446h-40z" />
    <glyph glyph-name="x" unicode="x" horiz-adv-x="517" 
d="M227 221h-4l-189 -221h-57l225 262l-147 249h64l119 -208h4l176 208h58l-216 -249l154 -262h-63z" />
    <glyph glyph-name="y" unicode="y" horiz-adv-x="510" 
d="M208 -25q-30 -57 -50.5 -89t-48.5 -52t-66 -20q-33 0 -62 14l7 46q30 -14 52 -14q36 0 58 24.5t46 67.5l31 56l-133 503h55l113 -435h4l236 435h50l-272 -498q-17 -32 -20 -38z" />
    <glyph glyph-name="z" unicode="z" horiz-adv-x="463" 
d="M-1 24l339 441h-260l6 46h335l-3 -24l-340 -441h286l-6 -46h-360z" />
    <glyph glyph-name="braceleft" unicode="{" horiz-adv-x="314" 
d="M129.5 242q15.5 -17 15.5 -52q0 -21 -5 -63.5t-10 -84.5q-2 -22 -6.5 -60t-4.5 -52q0 -27 22.5 -39t48.5 -12l-5 -38q-47 0 -82 22.5t-35 70.5q0 26 17 137q2 11 8 50t6 54q0 25 -20 37t-49 12l11 79q31 0 56 14t29 43l30 214q9 64 51 88t97 24l-5 -38q-28 0 -55.5 -14
t-32.5 -45l-37 -218q-9 -53 -30 -78t-68 -25l-1 -9q39 0 54.5 -17z" />
    <glyph glyph-name="bar" unicode="|" horiz-adv-x="290" 
d="M231 720h52l-129 -919h-52z" />
    <glyph glyph-name="braceright" unicode="}" horiz-adv-x="314" 
d="M150.5 285q-15.5 17 -15.5 52q0 21 5 63.5t10 84.5q2 22 6.5 60t4.5 52q0 27 -22.5 39t-48.5 12l5 38q47 0 82 -22.5t35 -70.5q0 -26 -17 -137q-2 -11 -8 -50t-6 -54q0 -25 20 -37t49 -12l-11 -79q-31 0 -56 -14t-29 -43l-30 -214q-9 -64 -51 -88t-97 -24l5 38
q28 0 55.5 14t32.5 45l37 218q9 53 30 78t68 25l1 9q-39 0 -54.5 17z" />
    <glyph glyph-name="asciitilde" unicode="~" horiz-adv-x="691" 
d="M603 291.5q-27 -20.5 -66 -38t-81 -17.5q-28 0 -53.5 8.5t-58.5 24.5q-37 17 -62.5 25t-54.5 8q-42 0 -81 -17.5t-66 -38t-27 -22.5l8 60q0 2 27 22.5t66 38t81 17.5q28 0 53.5 -8.5t58.5 -24.5q37 -17 62.5 -25t54.5 -8q42 0 81 17.5t66 38t27 22.5l-8 -60
q0 -2 -27 -22.5z" />
    <glyph glyph-name="uni00A0" unicode="&#xa0;" horiz-adv-x="244" 
 />
    <glyph glyph-name="exclamdown" unicode="&#xa1;" horiz-adv-x="254" 
d="M166 510l-10 -69h-65l10 69h65zM135 369l-66 -545h-66l90 545h42z" />
    <glyph glyph-name="cent" unicode="&#xa2;" horiz-adv-x="527" 
d="M407 138q-59 -55 -141 -60v-84h-52l21 84q-78 5 -122.5 57.5t-44.5 143.5q0 82 28 157t82.5 123.5t131.5 49.5v84h53l-22 -85q71 -5 113.5 -49t42.5 -120q0 -24 -2 -37h-50q2 22 2 32q0 63 -36 96t-94 33q-68 0 -112.5 -41.5t-65 -106t-20.5 -135.5q0 -76 38 -116
t100 -40q65 0 112.5 41t58.5 120h50q-12 -92 -71 -147z" />
    <glyph glyph-name="sterling" unicode="&#xa3;" horiz-adv-x="597" 
d="M178 362l23 162q12 84 73 130t145 46q75 0 120.5 -38t45.5 -107q0 -20 -5 -50h-50q4 22 4 39q0 54 -33.5 81t-88.5 27q-62 0 -105.5 -33.5t-52.5 -100.5l-22 -156h228l-7 -48h-228l-5 -37l-45 -229h324l-7 -48h-466l7 48h101l37 266h-139l7 48h139z" />
    <glyph glyph-name="currency" unicode="&#xa4;" horiz-adv-x="624" 
d="M535 490q34 -47 34 -117q0 -53 -19.5 -103.5t-57.5 -87.5l47 -54l-48 -42l-48 56q-70 -54 -159 -54q-43 0 -80.5 13.5t-64.5 40.5l-64 -56l-35 42l62 54q-34 45 -34 114q0 54 19.5 105.5t57.5 88.5l-47 54l48 42l48 -56q71 54 159 54q43 0 80.5 -13.5t64.5 -40.5l64 56
l36 -42zM235 503.5q-53 -31.5 -85.5 -83.5t-32.5 -112q0 -48 22.5 -87.5t62 -62t88.5 -22.5q57 0 110.5 31.5t86.5 84t33 111.5q0 48 -23 87.5t-62.5 62t-88.5 22.5q-58 0 -111 -31.5z" />
    <glyph glyph-name="yen" unicode="&#xa5;" horiz-adv-x="635" 
d="M198 433l-112 253h63l158 -365h5l265 365h55l-185 -253h123l-7 -49h-151l-64 -89h203l-7 -47h-220l-35 -248h-54l35 248h-220l7 47h203l-40 89h-151l7 49h122z" />
    <glyph glyph-name="brokenbar" unicode="&#xa6;" horiz-adv-x="269" 
d="M211 686l-37 -262h-65l37 262h65zM151 262l-37 -262h-65l37 262h65z" />
    <glyph glyph-name="section" unicode="&#xa7;" horiz-adv-x="516" 
d="M326 100q35 -23 54 -50.5t19 -64.5q0 -47 -25 -85.5t-75 -61.5t-120 -23q-86 0 -127.5 37t-41.5 86q0 9 1.5 17t2.5 12h50q-3 -16 -3 -25q0 -31 27.5 -56t105.5 -25q61 0 107 28t46 86q0 30 -20 53t-48.5 39.5t-78.5 40.5q-52 24 -83.5 42t-53 44t-21.5 60q0 52 31 89
t92 68q-34 23 -53.5 50.5t-19.5 64.5q0 46 25.5 85t75.5 62t120 23q86 0 127.5 -37t41.5 -86q0 -9 -1.5 -17t-2.5 -12h-50q3 16 3 24q0 32 -27.5 57t-105.5 25q-60 0 -106.5 -28t-46.5 -87q0 -29 20 -52t48.5 -39.5t78.5 -40.5q53 -25 84 -43t52.5 -43.5t21.5 -59.5
q0 -99 -124 -157zM367.5 168.5q29.5 31.5 29.5 73.5q0 27 -18 47.5t-44 35.5t-73 36q-44 20 -65 31q-102 -44 -102 -124q0 -39 33.5 -64t101.5 -55q53 -25 64 -31q44 19 73.5 50.5z" />
    <glyph glyph-name="dieresis" unicode="&#xa8;" horiz-adv-x="440" 
d="M147 720l-9 -69h-65l9 69h65zM323 720l-9 -69h-65l9 69h65z" />
    <glyph glyph-name="copyright" unicode="&#xa9;" horiz-adv-x="785" 
d="M706.5 166q-47.5 -81 -129 -128.5t-177.5 -47.5q-97 0 -178 47.5t-128.5 128.5t-47.5 178q0 96 47.5 177t129 128t177.5 47t177.5 -47.5t129 -128t47.5 -176.5q0 -97 -47.5 -178zM683.5 507q-44.5 75 -119.5 119t-164 44t-164.5 -44t-119.5 -118.5t-44 -163.5t44 -164.5
t119.5 -119.5t164.5 -44t164 44t119.5 119.5t44.5 164.5q0 88 -44.5 163zM492.5 491q-34.5 31 -88.5 31t-88.5 -31t-34.5 -90v-114q0 -61 34.5 -91.5t88.5 -30.5q56 0 90 32.5t34 94.5h35q0 -82 -44 -122.5t-115 -40.5q-73 0 -118 40.5t-45 124.5v99q0 83 45.5 124t117.5 41
q71 0 115 -41t44 -123h-36v7q0 59 -34.5 90z" />
    <glyph glyph-name="ordfeminine" unicode="&#xaa;" horiz-adv-x="419" 
d="M178 370q-48 0 -77 31.5t-29 93.5q0 51 16 97.5t50.5 76.5t85.5 30q67 0 92 -51l2 3l13 42h24q-6 -42 -19 -136t-18 -141q0 -14 12 -14q10 0 34 12l-4 -31q-19 -13 -40 -13q-20 0 -29 11.5t-9 30.5l-1 3q-39 -45 -103 -45zM273.5 453.5q28.5 51.5 28.5 121.5
q0 46 -21.5 69t-57.5 23q-59 0 -87.5 -52t-28.5 -119q0 -49 21 -71.5t57 -22.5q60 0 88.5 51.5z" />
    <glyph glyph-name="guillemotleft" unicode="&#xab;" horiz-adv-x="458" 
d="M55 337l147 174h41l-121 -174l72 -174h-41zM237 337l148 174h41l-121 -174l72 -174h-41z" />
    <glyph glyph-name="logicalnot" unicode="&#xac;" 
d="M471 184l27 192h-454l8 59h512l-35 -251h-58z" />
    <glyph glyph-name="uni00AD" unicode="&#xad;" horiz-adv-x="390" 
d="M321 299l-9 -62h-252l8 62h253z" />
    <glyph glyph-name="registered" unicode="&#xae;" horiz-adv-x="785" 
d="M706.5 166q-47.5 -81 -129 -128.5t-177.5 -47.5q-97 0 -178 47.5t-128.5 128.5t-47.5 178q0 96 47.5 177t129 128t177.5 47t177.5 -47.5t129 -128t47.5 -176.5q0 -97 -47.5 -178zM683.5 507q-44.5 75 -119.5 119t-164 44t-164.5 -44t-119.5 -118.5t-44 -163.5t44 -164.5
t119.5 -119.5t164.5 -44t164 44t119.5 119.5t44.5 164.5q0 88 -44.5 163zM564.5 135q-5.5 -1 -11.5 -1q-50 0 -50 81q0 68 -23.5 90.5t-49.5 22.5h-125v-193h-41v412h169q47 0 81 -29t34 -75q0 -34 -18.5 -59.5t-44.5 -36.5v-4q22 -9 39 -34.5t17 -79.5q0 -38 5 -54t26 -24
v-14q-2 -1 -7.5 -2zM488.5 385q22.5 22 22.5 53t-22 52t-54 21h-130v-148h130q31 0 53.5 22z" />
    <glyph glyph-name="macron" unicode="&#xaf;" horiz-adv-x="460" 
d="M76 736h318l-8 -45h-318z" />
    <glyph glyph-name="degree" unicode="&#xb0;" horiz-adv-x="404" 
d="M371.5 477.5q-20.5 -36.5 -57.5 -59t-83 -22.5q-39 0 -71 18.5t-50 50.5t-18 71q0 43 21 80t57.5 58.5t81.5 21.5q39 0 71 -19t50.5 -51.5t18.5 -70.5q0 -41 -20.5 -77.5zM194.5 636q-26.5 -15 -43 -41t-16.5 -58q0 -41 28.5 -69.5t70.5 -28.5q46 0 79.5 34t33.5 81
q0 41 -28 69t-70 28q-28 0 -54.5 -15z" />
    <glyph glyph-name="plusminus" unicode="&#xb1;" 
d="M570 344l-8 -58h-227l-24 -166h-58l24 166h-227l8 58h227l23 167h58l-23 -167h227zM24 58h500l-8 -58h-500z" />
    <glyph glyph-name="uni00B2" unicode="&#xb2;" horiz-adv-x="334" 
d="M36.5 494.5q18.5 22.5 51.5 42.5l117 71q57 35 57 91q0 31 -18.5 49.5t-52.5 18.5q-42 0 -70 -30t-28 -73h-41q0 37 19 69.5t52 52t73 19.5q50 0 78.5 -28t28.5 -72q0 -81 -84 -132l-123 -75q-30 -18 -32 -38h208l-5 -38h-254l2 19q3 31 21.5 53.5z" />
    <glyph glyph-name="uni00B3" unicode="&#xb3;" horiz-adv-x="336" 
d="M66 510q0 -61 87 -61q40 0 65.5 22t25.5 61q0 30 -21.5 45.5t-56.5 15.5h-47l5 37h44q39 0 66 19.5t27 57.5q0 27 -20 42t-51 15q-36 0 -61 -18t-29 -50l-2 -13h-40l2 13q7 49 45 77t90 28q47 0 77 -23t30 -65q0 -40 -16.5 -61t-48.5 -38q47 -22 47 -76
q0 -58 -37.5 -91.5t-98.5 -33.5q-55 0 -88.5 25t-33.5 67q0 14 4 31h40q-4 -17 -4 -26z" />
    <glyph glyph-name="acute" unicode="&#xb4;" horiz-adv-x="333" 
d="M173 720h65l-1 -3l-131 -142h-50z" />
    <glyph glyph-name="uni00B5" unicode="&#xb5;" horiz-adv-x="598" 
d="M353 57q39 21 65 58t32 82l44 314h51q-63 -445 -63 -451q0 -24 23 -24q24 0 52 16l-6 -43q-32 -19 -67 -19q-28 0 -40.5 18t-12.5 46q0 8 2 22q-32 -41 -78.5 -63.5t-96.5 -22.5q-44 0 -80.5 15.5t-55.5 45.5q0 -2 0.5 -7.5t0.5 -14.5q0 -10 -2 -28l-23 -162h-51l95 672
h51q-48 -334 -48 -355q0 -59 33 -89.5t92 -30.5q44 0 83 21z" />
    <glyph glyph-name="paragraph" unicode="&#xb6;" horiz-adv-x="524" 
d="M220 249q-70 10 -114.5 62.5t-44.5 124.5q0 74 34 131t91.5 88t126.5 31h210l-7 -49h-66l-114 -811h-52l114 811h-72l-114 -811h-52z" />
    <glyph glyph-name="periodcentered" unicode="&#xb7;" horiz-adv-x="235" 
d="M154 323l-9 -69h-65l9 69h65z" />
    <glyph glyph-name="cedilla" unicode="&#xb8;" horiz-adv-x="350" 
d="M132 -151q33 0 58.5 14t25.5 46q0 19 -15.5 29.5t-36.5 10.5h-22l5 34q57 0 88.5 -13.5t31.5 -59.5q0 -58 -42 -82.5t-90 -24.5q-44 0 -76 13l6 46q22 -13 67 -13z" />
    <glyph glyph-name="uni00B9" unicode="&#xb9;" horiz-adv-x="301" 
d="M18 460h102l41 285h-102l4 29q33 2 59 6.5t66 16.5h22l-48 -337h77l-5 -38h-221z" />
    <glyph glyph-name="ordmasculine" unicode="&#xba;" horiz-adv-x="392" 
d="M122 407q-31 33 -31 92q0 52 17.5 98t53.5 75t88 29t83 -33t31 -92q0 -52 -17.5 -98t-53.5 -75t-88 -29t-83 33zM299 456q30 50 30 119q0 46 -22.5 70t-60.5 24q-60 0 -90 -51t-30 -119q0 -46 22.5 -69.5t60.5 -23.5q60 0 90 50z" />
    <glyph glyph-name="guillemotright" unicode="&#xbb;" horiz-adv-x="460" 
d="M159 337l-73 174h41l100 -174l-149 -174h-41zM342 337l-73 174h41l99 -174l-148 -174h-41z" />
    <glyph glyph-name="onequarter" unicode="&#xbc;" horiz-adv-x="701" 
d="M43 349h102l40 285h-102l4 29q34 2 60 6.5t66 16.5h22l-48 -337h77l-5 -38h-221zM85 0l517 686h44l-514 -686h-47zM631 311h20l-25 -176h43l-5 -37h-43l-14 -98h-41l14 98h-181l5 34q21 22 75 102.5t84 140.5h43q-30 -62 -75.5 -133t-77.5 -107h132l19 130q18 28 27 46z
" />
    <glyph glyph-name="onehalf" unicode="&#xbd;" horiz-adv-x="727" 
d="M41 349h102l40 285h-102l4 29q34 2 60 6.5t66 16.5h22l-48 -337h77l-5 -38h-221zM83 0l517 686h44l-514 -686h-47zM424 73.5q18 22.5 49 41.5l117 71q57 35 57 93q0 30 -18 48t-52 18q-42 0 -70.5 -30t-28.5 -73h-41q0 40 21 72.5t54.5 50.5t69.5 18q50 0 78.5 -28
t28.5 -72q0 -81 -84 -132l-123 -75q-30 -18 -32 -38h208l-6 -38h-254l3 19q5 32 23 54.5z" />
    <glyph glyph-name="threequarters" unicode="&#xbe;" horiz-adv-x="698" 
d="M93 401q0 -61 87 -61q40 0 65.5 22t25.5 61q0 30 -21.5 45.5t-56.5 15.5h-47l5 37h44q39 0 66 19.5t27 57.5q0 27 -20 42t-51 15q-36 0 -61 -18t-29 -50l-2 -13h-40l2 13q7 49 45 77t90 28q47 0 77 -23t30 -65q0 -40 -16.5 -61t-48.5 -38q47 -22 47 -76
q0 -58 -37.5 -91.5t-98.5 -33.5q-55 0 -88.5 25t-33.5 67q0 14 4 31h40q-4 -17 -4 -26zM128 0l516 686h44l-513 -686h-47zM659 311h20l-25 -176h43l-5 -37h-43l-14 -98h-41l14 98h-181l4 34q21 21 75 101.5t85 141.5h43q-29 -61 -75 -132.5t-78 -107.5h132l18 130
q17 26 28 46z" />
    <glyph glyph-name="questiondown" unicode="&#xbf;" horiz-adv-x="494" 
d="M230 442l9 69h65l-9 -69h-65zM275 345l-11 -78q-5 -38 -27.5 -64t-64.5 -58q-34 -26 -55 -46.5t-35.5 -50.5t-14.5 -71q0 -46 26 -80t94 -34q90 0 128.5 51.5t45.5 102.5q1 9 1 17.5v11.5h54q0 -21 -2 -33q-4 -32 -23.5 -76.5t-70 -83.5t-138.5 -39q-99 0 -134 49.5
t-35 108.5q0 50 16 86.5t39 59.5t60 53q39 30 59 53t25 56l9 65h54z" />
    <glyph glyph-name="Agrave" unicode="&#xc0;" horiz-adv-x="650" 
d="M249 892l1 3h65l75 -145h-50zM113 170l-94 -170h-55l380 686h50l187 -686h-59l-47 170h-362zM462 219l-104 393h-4l-214 -393h322z" />
    <glyph glyph-name="Aacute" unicode="&#xc1;" horiz-adv-x="650" 
d="M463 895h65l-1 -3l-131 -142h-50zM113 170l-94 -170h-55l380 686h50l187 -686h-59l-47 170h-362zM462 219l-104 393h-4l-214 -393h322z" />
    <glyph glyph-name="Acircumflex" unicode="&#xc2;" horiz-adv-x="650" 
d="M432 895l113 -145h-60l-89 97l-117 -97h-60l155 145h58zM113 170l-94 -170h-55l380 686h50l187 -686h-59l-47 170h-362zM462 219l-104 393h-4l-214 -393h322z" />
    <glyph glyph-name="Atilde" unicode="&#xc3;" horiz-adv-x="650" 
d="M535.5 776q-27.5 -26 -80.5 -26q-22 0 -41 4t-48 13q-45 15 -74 15q-25 0 -39.5 -7.5t-21.5 -24.5h-37q4 30 31.5 56t80.5 26q22 0 41 -4t48 -13q45 -15 74 -15q25 0 39.5 7.5t21.5 24.5h37q-4 -30 -31.5 -56zM113 170l-94 -170h-55l380 686h50l187 -686h-59l-47 170
h-362zM462 219l-104 393h-4l-214 -393h322z" />
    <glyph glyph-name="Adieresis" unicode="&#xc4;" horiz-adv-x="650" 
d="M326 819l-9 -69h-65l9 69h65zM502 819l-9 -69h-65l9 69h65zM113 170l-94 -170h-55l380 686h50l187 -686h-59l-47 170h-362zM462 219l-104 393h-4l-214 -393h322z" />
    <glyph glyph-name="Aring" unicode="&#xc5;" horiz-adv-x="650" 
d="M456 754q-34 -34 -82 -34q-38 0 -63 24.5t-25 62.5q0 32 16.5 58t43.5 41t57 15q37 0 62 -24.5t25 -61.5q0 -47 -34 -81zM431.5 778q22.5 22 22.5 52q0 24 -16 39.5t-40 15.5q-30 0 -53 -22t-23 -52q0 -24 16.5 -39.5t40.5 -15.5q30 0 52.5 22zM113 170l-94 -170h-55
l380 686h50l187 -686h-59l-47 170h-362zM462 219l-104 393h-4l-214 -393h322z" />
    <glyph glyph-name="AE" unicode="&#xc6;" horiz-adv-x="981" 
d="M477 170h-354l-94 -170h-62l381 686h515l-12 -48h-444l72 -264h333v-48h-320l76 -278h296l9 -48h-349zM464 219l-103 389l-3 -1l-208 -388h314z" />
    <glyph glyph-name="Ccedilla" unicode="&#xc7;" horiz-adv-x="662" 
d="M466.5 50q-79.5 -60 -191.5 -60q-104 0 -161 51.5t-57 181.5q0 51 11 133q25 192 103.5 266t202.5 74q222 0 222 -200q0 -25 -5 -62h-53q4 25 4 52q0 162 -175 162q-98 0 -160 -60.5t-84 -219.5q-13 -91 -13 -141q0 -106 44.5 -147.5t127.5 -41.5q201 0 231 213h53
q-20 -141 -99.5 -201zM222 -151q34 0 59 14t25 46q0 19 -15.5 29.5t-36.5 10.5h-22l5 34q57 0 88.5 -13.5t31.5 -59.5q0 -58 -42 -82.5t-90 -24.5q-44 0 -76 13l6 46q22 -13 67 -13z" />
    <glyph glyph-name="Egrave" unicode="&#xc8;" horiz-adv-x="592" 
d="M250 892l1 3h65l75 -145h-50zM148 686h424l-13 -48h-364l-37 -264h319l-7 -48h-319l-39 -278h369v-48h-430z" />
    <glyph glyph-name="Eacute" unicode="&#xc9;" horiz-adv-x="592" 
d="M451 895h65l-1 -3l-131 -142h-50zM148 686h424l-13 -48h-364l-37 -264h319l-7 -48h-319l-39 -278h369v-48h-430z" />
    <glyph glyph-name="Ecircumflex" unicode="&#xca;" horiz-adv-x="592" 
d="M412 895l113 -145h-60l-89 97l-117 -97h-60l155 145h58zM148 686h424l-13 -48h-364l-37 -264h319l-7 -48h-319l-39 -278h369v-48h-430z" />
    <glyph glyph-name="Edieresis" unicode="&#xcb;" horiz-adv-x="592" 
d="M328 819l-9 -69h-65l9 69h65zM504 819l-9 -69h-65l9 69h65zM148 686h424l-13 -48h-364l-37 -264h319l-7 -48h-319l-39 -278h369v-48h-430z" />
    <glyph glyph-name="Igrave" unicode="&#xcc;" horiz-adv-x="365" 
d="M108 892l1 3h65l75 -145h-50zM321 686l-7 -49h-79l-83 -588h79l-7 -49h-212l7 49h79l83 588h-79l7 49h212z" />
    <glyph glyph-name="Iacute" unicode="&#xcd;" horiz-adv-x="365" 
d="M311 895h65l-1 -3l-131 -142h-50zM321 686l-7 -49h-79l-83 -588h79l-7 -49h-212l7 49h79l83 588h-79l7 49h212z" />
    <glyph glyph-name="Icircumflex" unicode="&#xce;" horiz-adv-x="365" 
d="M274 895l113 -145h-60l-89 97l-117 -97h-60l155 145h58zM321 686l-7 -49h-79l-83 -588h79l-7 -49h-212l7 49h79l83 588h-79l7 49h212z" />
    <glyph glyph-name="Idieresis" unicode="&#xcf;" horiz-adv-x="365" 
d="M176 820l-9 -69h-65l9 69h65zM352 820l-9 -69h-65l9 69h65zM321 686l-7 -49h-79l-83 -588h79l-7 -49h-212l7 49h79l83 588h-79l7 49h212z" />
    <glyph glyph-name="Eth" unicode="&#xd0;" horiz-adv-x="682" 
d="M109 319h-99l6 48h100l45 319h220q105 0 165.5 -54t60.5 -182q0 -44 -10 -119q-23 -181 -104.5 -256t-208.5 -75h-220zM454.5 109q65.5 61 87.5 213q12 85 12 119q0 107 -46.5 152t-133.5 45h-166l-38 -271h172l-7 -48h-172l-38 -271h166q98 0 163.5 61z" />
    <glyph glyph-name="Ntilde" unicode="&#xd1;" horiz-adv-x="694" 
d="M560.5 776q-27.5 -26 -80.5 -26q-22 0 -41 4t-48 13q-45 15 -74 15q-25 0 -39.5 -7.5t-21.5 -24.5h-37q4 30 31.5 56t80.5 26q22 0 41 -4t48 -13q45 -15 74 -15q25 0 39.5 7.5t21.5 24.5h37q-4 -30 -31.5 -56zM185 583h-4l-82 -583h-48l97 686h46l299 -583h4l82 583h48
l-97 -686h-48z" />
    <glyph glyph-name="Ograve" unicode="&#xd2;" horiz-adv-x="690" 
d="M287 892l1 3h65l75 -145h-50zM117 42.5q-60 52.5 -60 185.5q0 49 11 128q25 191 107 265.5t207 74.5q106 0 166 -52.5t60 -185.5q0 -40 -11 -128q-24 -191 -106 -265.5t-208 -74.5q-106 0 -166 52.5zM455 99q65 61 87 219q13 97 13 136q0 108 -48 151t-132 43
q-99 0 -164 -61t-88 -219q-13 -89 -13 -136q0 -108 47.5 -151t132.5 -43q100 0 165 61z" />
    <glyph glyph-name="Oacute" unicode="&#xd3;" horiz-adv-x="690" 
d="M485 895h65l-1 -3l-131 -142h-50zM117 42.5q-60 52.5 -60 185.5q0 49 11 128q25 191 107 265.5t207 74.5q106 0 166 -52.5t60 -185.5q0 -40 -11 -128q-24 -191 -106 -265.5t-208 -74.5q-106 0 -166 52.5zM455 99q65 61 87 219q13 97 13 136q0 108 -48 151t-132 43
q-99 0 -164 -61t-88 -219q-13 -89 -13 -136q0 -108 47.5 -151t132.5 -43q100 0 165 61z" />
    <glyph glyph-name="Ocircumflex" unicode="&#xd4;" horiz-adv-x="690" 
d="M453 895l113 -145h-60l-89 97l-117 -97h-60l155 145h58zM117 42.5q-60 52.5 -60 185.5q0 49 11 128q25 191 107 265.5t207 74.5q106 0 166 -52.5t60 -185.5q0 -40 -11 -128q-24 -191 -106 -265.5t-208 -74.5q-106 0 -166 52.5zM455 99q65 61 87 219q13 97 13 136
q0 108 -48 151t-132 43q-99 0 -164 -61t-88 -219q-13 -89 -13 -136q0 -108 47.5 -151t132.5 -43q100 0 165 61z" />
    <glyph glyph-name="Otilde" unicode="&#xd5;" horiz-adv-x="690" 
d="M563.5 777q-27.5 -26 -80.5 -26q-22 0 -41 4t-48 13q-45 15 -74 15q-25 0 -39.5 -7.5t-21.5 -24.5h-37q4 30 31.5 56t80.5 26q22 0 41 -4t48 -13q45 -15 74 -15q25 0 39.5 7.5t21.5 24.5h37q-4 -30 -31.5 -56zM117 42.5q-60 52.5 -60 185.5q0 49 11 128q25 191 107 265.5
t207 74.5q106 0 166 -52.5t60 -185.5q0 -40 -11 -128q-24 -191 -106 -265.5t-208 -74.5q-106 0 -166 52.5zM455 99q65 61 87 219q13 97 13 136q0 108 -48 151t-132 43q-99 0 -164 -61t-88 -219q-13 -89 -13 -136q0 -108 47.5 -151t132.5 -43q100 0 165 61z" />
    <glyph glyph-name="Odieresis" unicode="&#xd6;" horiz-adv-x="690" 
d="M360 820l-9 -69h-65l9 69h65zM536 820l-9 -69h-65l9 69h65zM117 42.5q-60 52.5 -60 185.5q0 49 11 128q25 191 107 265.5t207 74.5q106 0 166 -52.5t60 -185.5q0 -40 -11 -128q-24 -191 -106 -265.5t-208 -74.5q-106 0 -166 52.5zM455 99q65 61 87 219q13 97 13 136
q0 108 -48 151t-132 43q-99 0 -164 -61t-88 -219q-13 -89 -13 -136q0 -108 47.5 -151t132.5 -43q100 0 165 61z" />
    <glyph glyph-name="multiply" unicode="&#xd7;" 
d="M485 457l35 -41l-184 -161l138 -160l-47 -41l-137 160l-183 -160l-35 41l182 160l-137 161l47 41l137 -161z" />
    <glyph glyph-name="Oslash" unicode="&#xd8;" horiz-adv-x="690" 
d="M138 34l-73 -99h-45l92 125q-44 57 -44 168q0 49 11 128q25 191 107 265.5t207 74.5q103 0 156 -44l75 102h44l-94 -128q45 -58 45 -168q0 -40 -11 -128q-24 -191 -106 -265.5t-208 -74.5q-103 0 -156 44zM148 108l367 499q-44 41 -129 41q-99 0 -164 -61t-88 -219
q-13 -89 -13 -136q0 -78 27 -124zM466 99q65 61 87 219q13 97 13 136q0 76 -28 124l-367 -499q42 -41 130 -41q100 0 165 61z" />
    <glyph glyph-name="Ugrave" unicode="&#xd9;" horiz-adv-x="682" 
d="M277 892l1 3h65l75 -145h-50zM554 220q-10 -69 -47 -121t-95 -80.5t-129 -28.5q-97 0 -153 51.5t-56 138.5q0 33 28.5 233.5t39.5 272.5h54l-43 -306q-5 -33 -12.5 -84.5t-10 -75.5t-2.5 -33q0 -69 41.5 -109t119.5 -40q87 0 143 50.5t68 133.5l65 464h54z" />
    <glyph glyph-name="Uacute" unicode="&#xda;" horiz-adv-x="682" 
d="M480 895h65l-1 -3l-131 -142h-50zM554 220q-10 -69 -47 -121t-95 -80.5t-129 -28.5q-97 0 -153 51.5t-56 138.5q0 33 28.5 233.5t39.5 272.5h54l-43 -306q-5 -33 -12.5 -84.5t-10 -75.5t-2.5 -33q0 -69 41.5 -109t119.5 -40q87 0 143 50.5t68 133.5l65 464h54z" />
    <glyph glyph-name="Ucircumflex" unicode="&#xdb;" horiz-adv-x="682" 
d="M434 895l113 -145h-60l-89 97l-117 -97h-60l155 145h58zM554 220q-10 -69 -47 -121t-95 -80.5t-129 -28.5q-97 0 -153 51.5t-56 138.5q0 33 28.5 233.5t39.5 272.5h54l-43 -306q-5 -33 -12.5 -84.5t-10 -75.5t-2.5 -33q0 -69 41.5 -109t119.5 -40q87 0 143 50.5t68 133.5
l65 464h54z" />
    <glyph glyph-name="Udieresis" unicode="&#xdc;" horiz-adv-x="682" 
d="M344 820l-9 -69h-65l9 69h65zM520 820l-9 -69h-65l9 69h65zM554 220q-10 -69 -47 -121t-95 -80.5t-129 -28.5q-97 0 -153 51.5t-56 138.5q0 33 28.5 233.5t39.5 272.5h54l-43 -306q-5 -33 -12.5 -84.5t-10 -75.5t-2.5 -33q0 -69 41.5 -109t119.5 -40q87 0 143 50.5
t68 133.5l65 464h54z" />
    <glyph glyph-name="Yacute" unicode="&#xdd;" horiz-adv-x="570" 
d="M428 895h65l-1 -3l-131 -142h-50zM252 0h-54l38 266l-187 420h63l158 -365h5l265 365h55l-305 -420z" />
    <glyph glyph-name="Thorn" unicode="&#xde;" horiz-adv-x="633" 
d="M148 686h54l-19 -135h227q46 0 83 -21t58 -57.5t21 -81.5q0 -56 -30 -105.5t-80 -79t-105 -29.5h-227l-25 -177h-54zM435.5 246q37.5 22 60.5 59t23 79q0 51 -35 85t-88 34h-220l-39 -279h220q41 0 78.5 22z" />
    <glyph glyph-name="germandbls" unicode="&#xdf;" horiz-adv-x="614" 
d="M496 324.5q27 -42.5 27 -95.5q0 -61 -34.5 -113.5t-91.5 -84t-120 -31.5h-92l6 46h92q48 0 91.5 24.5t70 65.5t26.5 88q0 58 -40.5 97.5t-102.5 39.5h-92l6 46h81q46 0 86 21.5t63.5 58t23.5 78.5q0 51 -33.5 84t-90.5 33q-74 0 -124.5 -46t-61.5 -122l-81 -580h-51
l74 531h-56l7 46h56q9 65 42.5 114t85.5 76t115 27q50 0 89 -20.5t60 -56.5t21 -80q0 -57 -36.5 -110.5t-88.5 -72.5l1 -3q45 -18 72 -60.5z" />
    <glyph glyph-name="agrave" unicode="&#xe0;" horiz-adv-x="607" 
d="M196 717l1 3h65l75 -145h-50zM387 69q-66 -79 -175 -79q-77 0 -123.5 50t-46.5 150q0 83 26 158.5t81 124t138 48.5q53 0 92 -21.5t59 -59.5h4l24 71h33q-10 -69 -36 -255.5t-26 -194.5q0 -25 23 -25t53 16l-6 -43q-30 -19 -63 -19q-31 0 -44.5 18t-13.5 47q0 9 1 14z
M335.5 77.5q43.5 41.5 63 106t19.5 137.5q0 77 -36.5 115.5t-96.5 38.5q-67 0 -110 -42.5t-62.5 -107t-19.5 -132.5q0 -82 35 -119.5t96 -37.5q68 0 111.5 41.5z" />
    <glyph glyph-name="aacute" unicode="&#xe1;" horiz-adv-x="607" 
d="M402 720h65l-1 -3l-131 -142h-50zM387 69q-66 -79 -175 -79q-77 0 -123.5 50t-46.5 150q0 83 26 158.5t81 124t138 48.5q53 0 92 -21.5t59 -59.5h4l24 71h33q-10 -69 -36 -255.5t-26 -194.5q0 -25 23 -25t53 16l-6 -43q-30 -19 -63 -19q-31 0 -44.5 18t-13.5 47q0 9 1 14
zM335.5 77.5q43.5 41.5 63 106t19.5 137.5q0 77 -36.5 115.5t-96.5 38.5q-67 0 -110 -42.5t-62.5 -107t-19.5 -132.5q0 -82 35 -119.5t96 -37.5q68 0 111.5 41.5z" />
    <glyph glyph-name="acircumflex" unicode="&#xe2;" horiz-adv-x="607" 
d="M367 720l113 -145h-60l-89 97l-117 -97h-60l155 145h58zM387 69q-66 -79 -175 -79q-77 0 -123.5 50t-46.5 150q0 83 26 158.5t81 124t138 48.5q53 0 92 -21.5t59 -59.5h4l24 71h33q-10 -69 -36 -255.5t-26 -194.5q0 -25 23 -25t53 16l-6 -43q-30 -19 -63 -19
q-31 0 -44.5 18t-13.5 47q0 9 1 14zM335.5 77.5q43.5 41.5 63 106t19.5 137.5q0 77 -36.5 115.5t-96.5 38.5q-67 0 -110 -42.5t-62.5 -107t-19.5 -132.5q0 -82 35 -119.5t96 -37.5q68 0 111.5 41.5z" />
    <glyph glyph-name="atilde" unicode="&#xe3;" horiz-adv-x="607" 
d="M486.5 664q-27.5 -26 -80.5 -26q-22 0 -41 4t-48 13q-45 15 -74 15q-25 0 -39.5 -7.5t-21.5 -24.5h-37q4 30 31.5 56t80.5 26q22 0 41 -4t48 -13q45 -15 74 -15q25 0 39.5 7.5t21.5 24.5h37q-4 -30 -31.5 -56zM387 69q-66 -79 -175 -79q-77 0 -123.5 50t-46.5 150
q0 83 26 158.5t81 124t138 48.5q53 0 92 -21.5t59 -59.5h4l24 71h33q-10 -69 -36 -255.5t-26 -194.5q0 -25 23 -25t53 16l-6 -43q-30 -19 -63 -19q-31 0 -44.5 18t-13.5 47q0 9 1 14zM335.5 77.5q43.5 41.5 63 106t19.5 137.5q0 77 -36.5 115.5t-96.5 38.5q-67 0 -110 -42.5
t-62.5 -107t-19.5 -132.5q0 -82 35 -119.5t96 -37.5q68 0 111.5 41.5z" />
    <glyph glyph-name="adieresis" unicode="&#xe4;" horiz-adv-x="607" 
d="M282 720l-9 -69h-65l9 69h65zM458 720l-9 -69h-65l9 69h65zM387 69q-66 -79 -175 -79q-77 0 -123.5 50t-46.5 150q0 83 26 158.5t81 124t138 48.5q53 0 92 -21.5t59 -59.5h4l24 71h33q-10 -69 -36 -255.5t-26 -194.5q0 -25 23 -25t53 16l-6 -43q-30 -19 -63 -19
q-31 0 -44.5 18t-13.5 47q0 9 1 14zM335.5 77.5q43.5 41.5 63 106t19.5 137.5q0 77 -36.5 115.5t-96.5 38.5q-67 0 -110 -42.5t-62.5 -107t-19.5 -132.5q0 -82 35 -119.5t96 -37.5q68 0 111.5 41.5z" />
    <glyph glyph-name="aring" unicode="&#xe5;" horiz-adv-x="607" 
d="M396 589q-34 -34 -82 -34q-38 0 -63 24.5t-25 62.5q0 32 16.5 58t43.5 41t57 15q37 0 62 -24.5t25 -61.5q0 -47 -34 -81zM371.5 613q22.5 22 22.5 52q0 24 -16 39.5t-40 15.5q-30 0 -53 -22t-23 -52q0 -24 16.5 -39.5t40.5 -15.5q30 0 52.5 22zM387 69q-66 -79 -175 -79
q-77 0 -123.5 50t-46.5 150q0 83 26 158.5t81 124t138 48.5q53 0 92 -21.5t59 -59.5h4l24 71h33q-10 -69 -36 -255.5t-26 -194.5q0 -25 23 -25t53 16l-6 -43q-30 -19 -63 -19q-31 0 -44.5 18t-13.5 47q0 9 1 14zM335.5 77.5q43.5 41.5 63 106t19.5 137.5q0 77 -36.5 115.5
t-96.5 38.5q-67 0 -110 -42.5t-62.5 -107t-19.5 -132.5q0 -82 35 -119.5t96 -37.5q68 0 111.5 41.5z" />
    <glyph glyph-name="ae" unicode="&#xe6;" horiz-adv-x="895" 
d="M768.5 82q-32.5 -45 -81 -68.5t-104.5 -23.5q-66 0 -110.5 32t-61.5 93q-39 -65 -101.5 -95t-127.5 -30q-67 0 -105 27t-38 94q0 81 46.5 121t124 52t202.5 12q11 83 11 94q0 47 -27.5 66t-91.5 19q-66 0 -109.5 -25.5t-50.5 -78.5l-2 -16h-50l2 26q9 65 70 102.5
t147 37.5q144 0 162 -91q34 44 81.5 67.5t102.5 23.5q78 0 125.5 -44.5t47.5 -125.5q0 -24 -11 -101h-362l-1 -8q-4 -24 -4 -50q0 -76 38 -116t100 -40q64 0 111.5 39t58.5 114h50q-9 -62 -41.5 -107zM532.5 429q-50.5 -46 -68.5 -133h311q5 36 5 50q0 63 -36 96t-94 33
q-67 0 -117.5 -46zM229 242.5q-64 -7.5 -101.5 -36t-37.5 -87.5q0 -44 25 -63.5t84 -19.5q46 0 89 20t73.5 60.5t39.5 99.5l5 34q-113 0 -177 -7.5z" />
    <glyph glyph-name="ccedilla" unicode="&#xe7;" horiz-adv-x="546" 
d="M410.5 85.5q-32.5 -46.5 -81 -71t-105.5 -24.5q-84 0 -133 52.5t-49 148.5q0 84 28 159.5t86 123t142 47.5q78 0 125.5 -44.5t47.5 -125.5q0 -24 -2 -37h-50q2 22 2 32q0 63 -36 96t-94 33q-68 0 -112.5 -41.5t-65 -106t-20.5 -135.5q0 -76 38 -116t100 -40
q65 0 112.5 41t58.5 120h50q-9 -65 -41.5 -111.5zM181 -151q34 0 59 14t25 46q0 19 -15.5 29.5t-36.5 10.5h-22l5 34q57 0 88.5 -13.5t31.5 -59.5q0 -58 -42 -82.5t-90 -24.5q-44 0 -76 13l6 46q22 -13 67 -13z" />
    <glyph glyph-name="egrave" unicode="&#xe8;" horiz-adv-x="556" 
d="M201 717l1 3h65l75 -145h-50zM375.5 42.5q-61.5 -52.5 -152.5 -52.5q-84 0 -133 52.5t-49 148.5q0 83 28 158.5t85.5 123.5t142.5 48q78 0 125.5 -44.5t47.5 -125.5q0 -17 -3 -49t-8 -52h-362q-5 -32 -5 -58q0 -76 38 -116t100 -40q67 0 113 38.5t57 114.5h50
q-13 -94 -74.5 -146.5zM172.5 429q-50.5 -46 -68.5 -133h311q5 29 5 50q0 63 -36 96t-94 33q-67 0 -117.5 -46z" />
    <glyph glyph-name="eacute" unicode="&#xe9;" horiz-adv-x="556" 
d="M396 720h65l-1 -3l-131 -142h-50zM375.5 42.5q-61.5 -52.5 -152.5 -52.5q-84 0 -133 52.5t-49 148.5q0 83 28 158.5t85.5 123.5t142.5 48q78 0 125.5 -44.5t47.5 -125.5q0 -17 -3 -49t-8 -52h-362q-5 -32 -5 -58q0 -76 38 -116t100 -40q67 0 113 38.5t57 114.5h50
q-13 -94 -74.5 -146.5zM172.5 429q-50.5 -46 -68.5 -133h311q5 29 5 50q0 63 -36 96t-94 33q-67 0 -117.5 -46z" />
    <glyph glyph-name="ecircumflex" unicode="&#xea;" horiz-adv-x="556" 
d="M365 720l113 -145h-60l-89 97l-117 -97h-60l155 145h58zM375.5 42.5q-61.5 -52.5 -152.5 -52.5q-84 0 -133 52.5t-49 148.5q0 83 28 158.5t85.5 123.5t142.5 48q78 0 125.5 -44.5t47.5 -125.5q0 -17 -3 -49t-8 -52h-362q-5 -32 -5 -58q0 -76 38 -116t100 -40
q67 0 113 38.5t57 114.5h50q-13 -94 -74.5 -146.5zM172.5 429q-50.5 -46 -68.5 -133h311q5 29 5 50q0 63 -36 96t-94 33q-67 0 -117.5 -46z" />
    <glyph glyph-name="edieresis" unicode="&#xeb;" horiz-adv-x="556" 
d="M276 720l-9 -69h-65l9 69h65zM452 720l-9 -69h-65l9 69h65zM375.5 42.5q-61.5 -52.5 -152.5 -52.5q-84 0 -133 52.5t-49 148.5q0 83 28 158.5t85.5 123.5t142.5 48q78 0 125.5 -44.5t47.5 -125.5q0 -17 -3 -49t-8 -52h-362q-5 -32 -5 -58q0 -76 38 -116t100 -40
q67 0 113 38.5t57 114.5h50q-13 -94 -74.5 -146.5zM172.5 429q-50.5 -46 -68.5 -133h311q5 29 5 50q0 63 -36 96t-94 33q-67 0 -117.5 -46z" />
    <glyph glyph-name="igrave" unicode="&#xec;" horiz-adv-x="261" 
d="M94 717l1 3h65l75 -145h-50zM181 511h51l-71 -511h-51z" />
    <glyph glyph-name="iacute" unicode="&#xed;" horiz-adv-x="261" 
d="M234 720h65l-1 -3l-131 -142h-50zM114 511h51l-71 -511h-51z" />
    <glyph glyph-name="icircumflex" unicode="&#xee;" horiz-adv-x="261" 
d="M266 720l113 -145h-60l-89 97l-117 -97h-60l155 145h58zM185 511h51l-71 -511h-51z" />
    <glyph glyph-name="idieresis" unicode="&#xef;" horiz-adv-x="261" 
d="M177 720l-9 -69h-65l9 69h65zM353 720l-9 -69h-65l9 69h65zM187 511h51l-71 -511h-51z" />
    <glyph glyph-name="eth" unicode="&#xf0;" horiz-adv-x="576" 
d="M312 661l111 50l20 -23l-106 -48q75 -65 119.5 -146t44.5 -176q0 -79 -26.5 -154t-84.5 -124.5t-147 -49.5q-85 0 -134.5 53t-49.5 149q0 79 27 154.5t85.5 125t146.5 49.5q37 0 73 -13q-42 59 -98 112l-109 -50l-22 23l108 49q-22 18 -83 65l39 17q41 -27 86 -63z
M361.5 78q45.5 42 67.5 106.5t22 132.5q0 77 -38.5 117.5t-101.5 40.5q-71 0 -116.5 -42t-65.5 -105.5t-20 -132.5q0 -78 38.5 -118.5t101.5 -40.5q67 0 112.5 42z" />
    <glyph glyph-name="ntilde" unicode="&#xf1;" horiz-adv-x="593" 
d="M493.5 663q-27.5 -26 -80.5 -26q-22 0 -41 4t-48 13q-45 15 -74 15q-25 0 -39.5 -7.5t-21.5 -24.5h-37q4 30 31.5 56t80.5 26q22 0 41 -4t48 -13q45 -15 74 -15q25 0 39.5 7.5t21.5 24.5h37q-4 -30 -31.5 -56zM441 354q0 61 -32 91t-92 30q-44 0 -83 -21t-65 -58t-32 -82
l-44 -314h-51l72 511h34v-76q32 40 80.5 63t99.5 23q75 0 120 -38.5t45 -114.5q0 -13 -4 -46t-11.5 -85.5l-11.5 -80.5l-22 -156h-50q47 335 47 354z" />
    <glyph glyph-name="ograve" unicode="&#xf2;" horiz-adv-x="576" 
d="M199 717l1 3h65l75 -145h-50zM90.5 43q-49.5 53 -49.5 149q0 84 28.5 159.5t87 122.5t143.5 47t134.5 -53t49.5 -149q0 -84 -28.5 -159.5t-87 -122.5t-143.5 -47t-134.5 53zM345.5 76.5q45.5 40.5 66.5 104.5t21 136q0 77 -38.5 117.5t-101.5 40.5q-68 0 -113.5 -41.5
t-66.5 -105.5t-21 -135q0 -77 38.5 -117t101.5 -40q68 0 113.5 40.5z" />
    <glyph glyph-name="oacute" unicode="&#xf3;" horiz-adv-x="576" 
d="M420 720h65l-1 -3l-131 -142h-50zM90.5 43q-49.5 53 -49.5 149q0 84 28.5 159.5t87 122.5t143.5 47t134.5 -53t49.5 -149q0 -84 -28.5 -159.5t-87 -122.5t-143.5 -47t-134.5 53zM345.5 76.5q45.5 40.5 66.5 104.5t21 136q0 77 -38.5 117.5t-101.5 40.5
q-68 0 -113.5 -41.5t-66.5 -105.5t-21 -135q0 -77 38.5 -117t101.5 -40q68 0 113.5 40.5z" />
    <glyph glyph-name="ocircumflex" unicode="&#xf4;" horiz-adv-x="576" 
d="M375 720l113 -145h-60l-89 97l-117 -97h-60l155 145h58zM90.5 43q-49.5 53 -49.5 149q0 84 28.5 159.5t87 122.5t143.5 47t134.5 -53t49.5 -149q0 -84 -28.5 -159.5t-87 -122.5t-143.5 -47t-134.5 53zM345.5 76.5q45.5 40.5 66.5 104.5t21 136q0 77 -38.5 117.5
t-101.5 40.5q-68 0 -113.5 -41.5t-66.5 -105.5t-21 -135q0 -77 38.5 -117t101.5 -40q68 0 113.5 40.5z" />
    <glyph glyph-name="otilde" unicode="&#xf5;" horiz-adv-x="576" 
d="M485.5 664q-27.5 -26 -80.5 -26q-22 0 -41 4t-48 13q-45 15 -74 15q-25 0 -39.5 -7.5t-21.5 -24.5h-37q4 30 31.5 56t80.5 26q22 0 41 -4t48 -13q45 -15 74 -15q25 0 39.5 7.5t21.5 24.5h37q-4 -30 -31.5 -56zM90.5 43q-49.5 53 -49.5 149q0 84 28.5 159.5t87 122.5
t143.5 47t134.5 -53t49.5 -149q0 -84 -28.5 -159.5t-87 -122.5t-143.5 -47t-134.5 53zM345.5 76.5q45.5 40.5 66.5 104.5t21 136q0 77 -38.5 117.5t-101.5 40.5q-68 0 -113.5 -41.5t-66.5 -105.5t-21 -135q0 -77 38.5 -117t101.5 -40q68 0 113.5 40.5z" />
    <glyph glyph-name="odieresis" unicode="&#xf6;" horiz-adv-x="576" 
d="M286 720l-9 -69h-65l9 69h65zM462 720l-9 -69h-65l9 69h65zM90.5 43q-49.5 53 -49.5 149q0 84 28.5 159.5t87 122.5t143.5 47t134.5 -53t49.5 -149q0 -84 -28.5 -159.5t-87 -122.5t-143.5 -47t-134.5 53zM345.5 76.5q45.5 40.5 66.5 104.5t21 136q0 77 -38.5 117.5
t-101.5 40.5q-68 0 -113.5 -41.5t-66.5 -105.5t-21 -135q0 -77 38.5 -117t101.5 -40q68 0 113.5 40.5z" />
    <glyph glyph-name="divide" unicode="&#xf7;" 
d="M359 439l-9 -69h-65l9 69h65zM50 284h512l-9 -58h-512zM317 140l-9 -69h-65l9 69h65z" />
    <glyph glyph-name="oslash" unicode="&#xf8;" horiz-adv-x="576" 
d="M121 26l-61 -81h-45l80 106q-42 53 -42 141q0 84 28.5 159.5t87 122.5t143.5 47q68 0 114 -35l63 83h45l-82 -108q44 -53 44 -142q0 -84 -28.5 -159.5t-87 -122.5t-143.5 -47q-69 0 -116 36zM128 94l267 351q-36 30 -90 30q-68 0 -113.5 -41.5t-66.5 -105.5t-21 -135
q0 -59 24 -99zM357.5 76.5q45.5 40.5 66.5 104.5t21 136q0 63 -26 101l-267 -352q36 -30 92 -30q68 0 113.5 40.5z" />
    <glyph glyph-name="ugrave" unicode="&#xf9;" horiz-adv-x="617" 
d="M210 717l1 3h65l75 -145h-50zM318.5 13q-47.5 -23 -97.5 -23q-75 0 -119 38t-44 114q0 29 20.5 173.5t28.5 195.5h51q-7 -50 -27 -189.5t-20 -164.5q0 -64 31.5 -92.5t92.5 -28.5q44 0 83 21t65 58t32 82l44 314h51q-10 -69 -36.5 -255.5t-26.5 -194.5q0 -25 23 -25
t53 16l-6 -43q-30 -19 -63 -19q-31 0 -44.5 18t-13.5 47q0 7 2 21q-32 -40 -79.5 -63z" />
    <glyph glyph-name="uacute" unicode="&#xfa;" horiz-adv-x="617" 
d="M406 720h65l-1 -3l-131 -142h-50zM318.5 13q-47.5 -23 -97.5 -23q-75 0 -119 38t-44 114q0 29 20.5 173.5t28.5 195.5h51q-7 -50 -27 -189.5t-20 -164.5q0 -64 31.5 -92.5t92.5 -28.5q44 0 83 21t65 58t32 82l44 314h51q-10 -69 -36.5 -255.5t-26.5 -194.5q0 -25 23 -25
t53 16l-6 -43q-30 -19 -63 -19q-31 0 -44.5 18t-13.5 47q0 7 2 21q-32 -40 -79.5 -63z" />
    <glyph glyph-name="ucircumflex" unicode="&#xfb;" horiz-adv-x="617" 
d="M361 720l113 -145h-60l-89 97l-117 -97h-60l155 145h58zM318.5 13q-47.5 -23 -97.5 -23q-75 0 -119 38t-44 114q0 29 20.5 173.5t28.5 195.5h51q-7 -50 -27 -189.5t-20 -164.5q0 -64 31.5 -92.5t92.5 -28.5q44 0 83 21t65 58t32 82l44 314h51q-10 -69 -36.5 -255.5
t-26.5 -194.5q0 -25 23 -25t53 16l-6 -43q-30 -19 -63 -19q-31 0 -44.5 18t-13.5 47q0 7 2 21q-32 -40 -79.5 -63z" />
    <glyph glyph-name="udieresis" unicode="&#xfc;" horiz-adv-x="617" 
d="M274 720l-9 -69h-65l9 69h65zM450 720l-9 -69h-65l9 69h65zM318.5 13q-47.5 -23 -97.5 -23q-75 0 -119 38t-44 114q0 29 20.5 173.5t28.5 195.5h51q-7 -50 -27 -189.5t-20 -164.5q0 -64 31.5 -92.5t92.5 -28.5q44 0 83 21t65 58t32 82l44 314h51q-10 -69 -36.5 -255.5
t-26.5 -194.5q0 -25 23 -25t53 16l-6 -43q-30 -19 -63 -19q-31 0 -44.5 18t-13.5 47q0 7 2 21q-32 -40 -79.5 -63z" />
    <glyph glyph-name="yacute" unicode="&#xfd;" horiz-adv-x="510" 
d="M366 720h65l-1 -3l-131 -142h-50zM208 -25q-30 -57 -50.5 -89t-48.5 -52t-66 -20q-33 0 -62 14l7 46q30 -14 52 -14q36 0 58 24.5t46 67.5l31 56l-133 503h55l113 -435h4l236 435h50l-272 -498q-17 -32 -20 -38z" />
    <glyph glyph-name="thorn" unicode="&#xfe;" horiz-adv-x="582" 
d="M194 720l-39 -279q67 80 175 80q77 0 123.5 -50t46.5 -150q0 -83 -26 -158.5t-81 -124t-138 -48.5q-53 0 -92 21.5t-59 59.5l-36 -252h-51l127 901h50zM206.5 432q-43.5 -43 -63.5 -108t-20 -134q0 -77 37 -115.5t97 -38.5q67 0 110 41.5t62.5 106t19.5 135.5
q0 82 -35.5 119t-95.5 37q-68 0 -111.5 -43z" />
    <glyph glyph-name="ydieresis" unicode="&#xff;" horiz-adv-x="510" 
d="M237 720l-9 -69h-65l9 69h65zM413 720l-9 -69h-65l9 69h65zM208 -25q-30 -57 -50.5 -89t-48.5 -52t-66 -20q-33 0 -62 14l7 46q30 -14 52 -14q36 0 58 24.5t46 67.5l31 56l-133 503h55l113 -435h4l236 435h50l-272 -498q-17 -32 -20 -38z" />
    <glyph glyph-name="Amacron" unicode="&#x100;" horiz-adv-x="650" 
d="M113 170l-94 -170h-55l380 686h50l187 -686h-59l-47 170h-362zM462 219l-104 393h-4l-214 -393h322zM242 911h318l-8 -45h-318z" />
    <glyph glyph-name="amacron" unicode="&#x101;" horiz-adv-x="607" 
d="M387 69q-66 -79 -175 -79q-77 0 -123.5 50t-46.5 150q0 83 26 158.5t81 124t138 48.5q53 0 92 -21.5t59 -59.5h4l24 71h33q-10 -69 -36 -255.5t-26 -194.5q0 -25 23 -25t53 16l-6 -43q-30 -19 -63 -19q-31 0 -44.5 18t-13.5 47q0 9 1 14zM335.5 77.5q43.5 41.5 63 106
t19.5 137.5q0 77 -36.5 115.5t-96.5 38.5q-67 0 -110 -42.5t-62.5 -107t-19.5 -132.5q0 -82 35 -119.5t96 -37.5q68 0 111.5 41.5zM153 736h318l-8 -45h-318z" />
    <glyph glyph-name="Abreve" unicode="&#x102;" horiz-adv-x="650" 
d="M113 170l-94 -170h-55l380 686h50l187 -686h-59l-47 170h-362zM462 219l-104 393h-4l-214 -393h322zM286.5 805q-40.5 17 -64 44t-23.5 55q0 5 1 8h56q7 -36 41 -55.5t85 -19.5q50 0 90 19.5t57 55.5h56q-4 -29 -34.5 -58t-77.5 -47.5t-98 -18.5q-48 0 -88.5 17z" />
    <glyph glyph-name="abreve" unicode="&#x103;" horiz-adv-x="607" 
d="M387 69q-66 -79 -175 -79q-77 0 -123.5 50t-46.5 150q0 83 26 158.5t81 124t138 48.5q53 0 92 -21.5t59 -59.5h4l24 71h33q-10 -69 -36 -255.5t-26 -194.5q0 -25 23 -25t53 16l-6 -43q-30 -19 -63 -19q-31 0 -44.5 18t-13.5 47q0 9 1 14zM335.5 77.5q43.5 41.5 63 106
t19.5 137.5q0 77 -36.5 115.5t-96.5 38.5q-67 0 -110 -42.5t-62.5 -107t-19.5 -132.5q0 -82 35 -119.5t96 -37.5q68 0 111.5 41.5zM197.5 630q-40.5 17 -64 44t-23.5 55q0 5 1 8h56q7 -36 41 -55.5t85 -19.5q50 0 90 19.5t57 55.5h56q-4 -29 -34.5 -58t-77.5 -47.5
t-98 -18.5q-48 0 -88.5 17z" />
    <glyph glyph-name="Aogonek" unicode="&#x104;" horiz-adv-x="650" 
d="M113 170l-94 -170h-55l380 686h50l187 -686h-59l-47 170h-362zM462 219l-104 393h-4l-214 -393h322zM547 -143q-37 0 -62 14t-25 46q0 26 17.5 45.5t47.5 37.5h50l-4 -2q-25 -15 -39 -29.5t-14 -35.5q0 -18 11 -25.5t28 -7.5q25 0 69 14l9 -33q-42 -24 -88 -24z" />
    <glyph glyph-name="aogonek" unicode="&#x105;" horiz-adv-x="607" 
d="M557 -119q-42 -24 -88 -24q-37 0 -62 14t-25 46q0 39 50 74q-46 7 -46 64q0 9 1 14q-66 -79 -175 -79q-77 0 -123.5 50t-46.5 150q0 83 26 158.5t81 124t138 48.5q53 0 92 -21.5t59 -59.5h4l24 71h33q-10 -69 -36 -255.5t-26 -194.5q0 -25 23 -25t53 16l-6 -43l-17 -9h7
l-4 -2q-25 -15 -39 -29.5t-14 -35.5q0 -18 11 -25.5t28 -7.5q25 0 69 14zM335.5 77.5q43.5 41.5 63 106t19.5 137.5q0 77 -36.5 115.5t-96.5 38.5q-67 0 -110 -42.5t-62.5 -107t-19.5 -132.5q0 -82 35 -119.5t96 -37.5q68 0 111.5 41.5z" />
    <glyph glyph-name="Cacute" unicode="&#x106;" horiz-adv-x="662" 
d="M466.5 50q-79.5 -60 -191.5 -60q-104 0 -161 51.5t-57 181.5q0 51 11 133q25 192 103.5 266t202.5 74q222 0 222 -200q0 -25 -5 -62h-53q4 25 4 52q0 162 -175 162q-98 0 -160 -60.5t-84 -219.5q-13 -91 -13 -141q0 -106 44.5 -147.5t127.5 -41.5q201 0 231 213h53
q-20 -141 -99.5 -201zM477 895h65l-1 -3l-131 -142h-50z" />
    <glyph glyph-name="cacute" unicode="&#x107;" horiz-adv-x="546" 
d="M410.5 85.5q-32.5 -46.5 -81 -71t-105.5 -24.5q-84 0 -133 52.5t-49 148.5q0 84 28 159.5t86 123t142 47.5q78 0 125.5 -44.5t47.5 -125.5q0 -24 -2 -37h-50q2 22 2 32q0 63 -36 96t-94 33q-68 0 -112.5 -41.5t-65 -106t-20.5 -135.5q0 -76 38 -116t100 -40
q65 0 112.5 41t58.5 120h50q-9 -65 -41.5 -111.5zM374 720h65l-1 -3l-131 -142h-50z" />
    <glyph glyph-name="Ccaron" unicode="&#x10c;" horiz-adv-x="662" 
d="M466.5 50q-79.5 -60 -191.5 -60q-104 0 -161 51.5t-57 181.5q0 51 11 133q25 192 103.5 266t202.5 74q222 0 222 -200q0 -25 -5 -62h-53q4 25 4 52q0 162 -175 162q-98 0 -160 -60.5t-84 -219.5q-13 -91 -13 -141q0 -106 44.5 -147.5t127.5 -41.5q201 0 231 213h53
q-20 -141 -99.5 -201zM308 895l89 -97l117 97h60l-155 -145h-58l-113 145h60z" />
    <glyph glyph-name="ccaron" unicode="&#x10d;" horiz-adv-x="546" 
d="M410.5 85.5q-32.5 -46.5 -81 -71t-105.5 -24.5q-84 0 -133 52.5t-49 148.5q0 84 28 159.5t86 123t142 47.5q78 0 125.5 -44.5t47.5 -125.5q0 -24 -2 -37h-50q2 22 2 32q0 63 -36 96t-94 33q-68 0 -112.5 -41.5t-65 -106t-20.5 -135.5q0 -76 38 -116t100 -40
q65 0 112.5 41t58.5 120h50q-9 -65 -41.5 -111.5zM205 720l89 -97l117 97h60l-155 -145h-58l-113 145h60z" />
    <glyph glyph-name="Dcaron" unicode="&#x10e;" horiz-adv-x="677" 
d="M148 686h220q105 0 165.5 -54t60.5 -182q0 -44 -10 -119q-23 -181 -104.5 -256t-208.5 -75h-220zM441.5 109q65.5 61 87.5 213q12 85 12 119q0 107 -46.5 152t-133.5 45h-166l-83 -590h166q98 0 163.5 61zM266 895l89 -97l117 97h60l-155 -145h-58l-113 145h60z" />
    <glyph glyph-name="dcaron" unicode="&#x10f;" horiz-adv-x="612" 
d="M387 69q-66 -79 -175 -79q-77 0 -123.5 50t-46.5 150q0 83 26 158.5t81 124t138 48.5q53 0 92 -21.5t59 -59.5l40 280h51q-14 -101 -53 -376t-39 -283q0 -25 23 -25t53 16l-6 -43q-30 -19 -63 -19q-31 0 -44.5 18t-13.5 47q0 9 1 14zM335.5 77.5q43.5 41.5 63 106
t19.5 137.5q0 77 -36.5 115.5t-96.5 38.5q-67 0 -110 -42.5t-62.5 -107t-19.5 -132.5q0 -82 35 -119.5t96 -37.5q68 0 111.5 41.5zM604.5 566.5q12.5 34.5 18.5 50.5h-24l9 69h65l-8 -58l-45 -112h-34q6 16 18.5 50.5z" />
    <glyph glyph-name="Dcroat" unicode="&#x110;" horiz-adv-x="682" 
d="M109 319h-99l6 48h100l45 319h220q105 0 165.5 -54t60.5 -182q0 -44 -10 -119q-23 -181 -104.5 -256t-208.5 -75h-220zM454.5 109q65.5 61 87.5 213q12 85 12 119q0 107 -46.5 152t-133.5 45h-166l-38 -271h172l-7 -48h-172l-38 -271h166q98 0 163.5 61z" />
    <glyph glyph-name="dcroat" unicode="&#x111;" horiz-adv-x="612" 
d="M515 623l-35 -250q-43 -305 -43 -312q0 -25 23 -25t53 16l-6 -43q-30 -19 -63 -19q-31 0 -44.5 18t-13.5 47q0 9 1 14q-66 -79 -175 -79q-77 0 -123.5 50t-46.5 150q0 83 26 158.5t81 124t138 48.5q53 0 92 -21.5t59 -59.5l26 183h-219l6 43h219l8 54h51l-8 -54h112
l-6 -43h-112zM335.5 77.5q43.5 41.5 63 106t19.5 137.5q0 77 -36.5 115.5t-96.5 38.5q-67 0 -110 -42.5t-62.5 -107t-19.5 -132.5q0 -82 35 -119.5t96 -37.5q68 0 111.5 41.5z" />
    <glyph glyph-name="Emacron" unicode="&#x112;" horiz-adv-x="592" 
d="M148 686h424l-13 -48h-364l-37 -264h319l-7 -48h-319l-39 -278h369v-48h-430zM230 911h318l-8 -45h-318z" />
    <glyph glyph-name="emacron" unicode="&#x113;" horiz-adv-x="556" 
d="M375.5 42.5q-61.5 -52.5 -152.5 -52.5q-84 0 -133 52.5t-49 148.5q0 83 28 158.5t85.5 123.5t142.5 48q78 0 125.5 -44.5t47.5 -125.5q0 -17 -3 -49t-8 -52h-362q-5 -32 -5 -58q0 -76 38 -116t100 -40q67 0 113 38.5t57 114.5h50q-13 -94 -74.5 -146.5zM172.5 429
q-50.5 -46 -68.5 -133h311q5 29 5 50q0 63 -36 96t-94 33q-67 0 -117.5 -46zM157 736h318l-8 -45h-318z" />
    <glyph glyph-name="Edotaccent" unicode="&#x116;" horiz-adv-x="592" 
d="M148 686h424l-13 -48h-364l-37 -264h319l-7 -48h-319l-39 -278h369v-48h-430zM424 801.5q-22 -22.5 -54 -22.5q-24 0 -41 16t-17 40q0 31 22 53.5t54 22.5q25 0 41.5 -16.5t16.5 -40.5q0 -30 -22 -52.5z" />
    <glyph glyph-name="edotaccent" unicode="&#x117;" horiz-adv-x="556" 
d="M375.5 42.5q-61.5 -52.5 -152.5 -52.5q-84 0 -133 52.5t-49 148.5q0 83 28 158.5t85.5 123.5t142.5 48q78 0 125.5 -44.5t47.5 -125.5q0 -17 -3 -49t-8 -52h-362q-5 -32 -5 -58q0 -76 38 -116t100 -40q67 0 113 38.5t57 114.5h50q-13 -94 -74.5 -146.5zM172.5 429
q-50.5 -46 -68.5 -133h311q5 29 5 50q0 63 -36 96t-94 33q-67 0 -117.5 -46zM351 626.5q-22 -22.5 -54 -22.5q-24 0 -41 16t-17 40q0 31 22 53.5t54 22.5q25 0 41.5 -16.5t16.5 -40.5q0 -30 -22 -52.5z" />
    <glyph glyph-name="Eogonek" unicode="&#x118;" horiz-adv-x="592" 
d="M148 686h424l-13 -48h-364l-37 -264h319l-7 -48h-319l-39 -278h369v-48h-430zM426 -143q-37 0 -62 14t-25 46q0 26 17.5 45.5t47.5 37.5h50l-4 -2q-25 -15 -39 -29.5t-14 -35.5q0 -18 11 -25.5t28 -7.5q25 0 69 14l9 -33q-42 -24 -88 -24z" />
    <glyph glyph-name="eogonek" unicode="&#x119;" horiz-adv-x="556" 
d="M97 250q-5 -32 -5 -58q0 -76 38 -116t100 -40q67 0 113 38.5t57 114.5h50q-10 -74 -50.5 -122.5t-103.5 -66.5h5l-4 -2q-25 -15 -39 -29.5t-14 -35.5q0 -18 11 -25.5t28 -7.5q25 0 69 14l9 -33q-42 -24 -88 -24q-37 0 -62 14t-25 46q0 42 50 73h-13q-84 0 -133 52.5
t-49 148.5q0 83 28 158.5t85.5 123.5t142.5 48q78 0 125.5 -44.5t47.5 -125.5q0 -17 -3 -49t-8 -52h-362zM172.5 429q-50.5 -46 -68.5 -133h311q5 29 5 50q0 63 -36 96t-94 33q-67 0 -117.5 -46z" />
    <glyph glyph-name="Ecaron" unicode="&#x11a;" horiz-adv-x="592" 
d="M148 686h424l-13 -48h-364l-37 -264h319l-7 -48h-319l-39 -278h369v-48h-430zM273 895l89 -97l117 97h60l-155 -145h-58l-113 145h60z" />
    <glyph glyph-name="ecaron" unicode="&#x11b;" horiz-adv-x="556" 
d="M375.5 42.5q-61.5 -52.5 -152.5 -52.5q-84 0 -133 52.5t-49 148.5q0 83 28 158.5t85.5 123.5t142.5 48q78 0 125.5 -44.5t47.5 -125.5q0 -17 -3 -49t-8 -52h-362q-5 -32 -5 -58q0 -76 38 -116t100 -40q67 0 113 38.5t57 114.5h50q-13 -94 -74.5 -146.5zM172.5 429
q-50.5 -46 -68.5 -133h311q5 29 5 50q0 63 -36 96t-94 33q-67 0 -117.5 -46zM200 720l89 -97l117 97h60l-155 -145h-58l-113 145h60z" />
    <glyph glyph-name="Gbreve" unicode="&#x11e;" horiz-adv-x="675" 
d="M291 303l6 47h282l-32 -231q-6 -44 -8.5 -77t-2.5 -42h-37q-1 6 -2 29.5t-1 62.5q-35 -52 -91.5 -77t-119.5 -25q-109 0 -168.5 51t-59.5 182q0 51 11 133q25 192 103.5 266t202.5 74q99 0 161 -43.5t62 -148.5q0 -28 -4 -55h-53q3 24 3 45q0 84 -49 119t-127 35
q-98 0 -160 -60.5t-84 -219.5q-13 -91 -13 -141q0 -106 47 -147.5t135 -41.5q83 0 146 48t78 165l7 52h-232zM276.5 805q-40.5 17 -64 44t-23.5 55q0 5 1 8h56q7 -36 41 -55.5t85 -19.5q50 0 90 19.5t57 55.5h56q-4 -29 -34.5 -58t-77.5 -47.5t-98 -18.5q-48 0 -88.5 17z
" />
    <glyph glyph-name="gbreve" unicode="&#x11f;" horiz-adv-x="583" 
d="M115 -110q42 -29 100 -29q65 0 112 38t57 109l12 83q-31 -38 -78 -59.5t-100 -21.5q-76 0 -124 49.5t-48 136.5q0 81 26.5 155.5t82.5 122t138 47.5q117 0 160 -95l31 85h21l-70 -494q-13 -95 -69 -149t-158 -54q-64 0 -106 24.5t-61.5 62t-19.5 77.5h52q0 -59 42 -88z
M341.5 94q43.5 38 63 98t19.5 127q0 83 -36 119.5t-97 36.5q-67 0 -110 -40.5t-63 -103t-20 -132.5q0 -71 36 -107t96 -36q68 0 111.5 38zM215.5 630q-40.5 17 -64 44t-23.5 55q0 5 1 8h56q7 -36 41 -55.5t85 -19.5q50 0 90 19.5t57 55.5h56q-4 -29 -34.5 -58t-77.5 -47.5
t-98 -18.5q-48 0 -88.5 17z" />
    <glyph glyph-name="Gcommaaccent" unicode="&#x122;" horiz-adv-x="675" 
d="M291 303l6 47h282l-32 -231q-6 -44 -8.5 -77t-2.5 -42h-37q-1 6 -2 29.5t-1 62.5q-35 -52 -91.5 -77t-119.5 -25q-109 0 -168.5 51t-59.5 182q0 51 11 133q25 192 103.5 266t202.5 74q99 0 161 -43.5t62 -148.5q0 -28 -4 -55h-53q3 24 3 45q0 84 -49 119t-127 35
q-98 0 -160 -60.5t-84 -219.5q-13 -91 -13 -141q0 -106 47 -147.5t135 -41.5q83 0 146 48t78 165l7 52h-232zM252.5 -199.5q12.5 34.5 18.5 50.5h-24l9 69h65l-8 -58l-46 -112h-34q7 16 19.5 50.5z" />
    <glyph glyph-name="gcommaaccent" unicode="&#x123;" horiz-adv-x="583" 
d="M347.5 710.5q-12.5 -34.5 -18.5 -50.5h24l-9 -69h-65l8 58l46 112h34q-7 -16 -19.5 -50.5zM115 -110q42 -29 100 -29q65 0 112 38t57 109l12 83q-31 -38 -78 -59.5t-100 -21.5q-76 0 -124 49.5t-48 136.5q0 81 26.5 155.5t82.5 122t138 47.5q117 0 160 -95l31 85h21
l-70 -494q-13 -95 -69 -149t-158 -54q-64 0 -106 24.5t-61.5 62t-19.5 77.5h52q0 -59 42 -88zM341.5 94q43.5 38 63 98t19.5 127q0 83 -36 119.5t-97 36.5q-67 0 -110 -40.5t-63 -103t-20 -132.5q0 -71 36 -107t96 -36q68 0 111.5 38z" />
    <glyph glyph-name="Imacron" unicode="&#x12a;" horiz-adv-x="365" 
d="M321 686l-7 -49h-79l-83 -588h79l-7 -49h-212l7 49h79l83 588h-79l7 49h212zM88 911h318l-8 -45h-318z" />
    <glyph glyph-name="imacron" unicode="&#x12b;" horiz-adv-x="261" 
d="M114 511h51l-71 -511h-51zM13 736h318l-8 -45h-318z" />
    <glyph glyph-name="Iogonek" unicode="&#x12e;" horiz-adv-x="365" 
d="M321 686l-7 -49h-79l-83 -588h79l-7 -49h-212l7 49h79l83 588h-79l7 49h212zM191 -143q-37 0 -62 14t-25 46q0 26 17.5 45.5t47.5 37.5h50l-4 -2q-25 -15 -39 -29.5t-14 -35.5q0 -18 11 -25.5t28 -7.5q25 0 69 14l9 -33q-42 -24 -88 -24z" />
    <glyph glyph-name="iogonek" unicode="&#x12f;" horiz-adv-x="261" 
d="M198 720l-7 -54h-59l7 54h59zM46 -31.5q-14 -14.5 -14 -35.5q0 -18 11 -25.5t28 -7.5q25 0 69 14l9 -33q-42 -24 -88 -24q-37 0 -62 14t-25 46q0 26 17.5 45.5t47.5 37.5h4l71 511h51l-71 -511h-5l-4 -2q-25 -15 -39 -29.5z" />
    <glyph glyph-name="Idotaccent" unicode="&#x130;" horiz-adv-x="365" 
d="M321 686l-7 -49h-79l-83 -588h79l-7 -49h-212l7 49h79l83 588h-79l7 49h212zM282 801.5q-22 -22.5 -54 -22.5q-24 0 -41 16t-17 40q0 31 22 53.5t54 22.5q25 0 41.5 -16.5t16.5 -40.5q0 -30 -22 -52.5z" />
    <glyph glyph-name="dotlessi" unicode="&#x131;" horiz-adv-x="261" 
d="M114 511h51l-71 -511h-51z" />
    <glyph glyph-name="Kcommaaccent" unicode="&#x136;" horiz-adv-x="621" 
d="M202 686l-57 -407l420 407h64l-309 -299l220 -387h-68l-195 346l-142 -138l-30 -208h-54l97 686h54zM225.5 -199.5q12.5 34.5 18.5 50.5h-24l9 69h65l-8 -58l-46 -112h-34q7 16 19.5 50.5z" />
    <glyph glyph-name="kcommaaccent" unicode="&#x137;" horiz-adv-x="534" 
d="M111 127l-18 -127h-51l101 720h51l-75 -534l336 325h63l-249 -241l194 -270h-66l-167 232zM181.5 -199.5q12.5 34.5 18.5 50.5h-24l9 69h65l-8 -58l-46 -112h-34q7 16 19.5 50.5z" />
    <glyph glyph-name="Lacute" unicode="&#x139;" horiz-adv-x="532" 
d="M148 686h54l-90 -638h342v-48h-403zM260 895h65l-1 -3l-131 -142h-50z" />
    <glyph glyph-name="lacute" unicode="&#x13a;" horiz-adv-x="268" 
d="M147 720h51l-101 -720h-51zM255 895h65l-1 -3l-131 -142h-50z" />
    <glyph glyph-name="Lcommaaccent" unicode="&#x13b;" horiz-adv-x="532" 
d="M148 686h54l-90 -638h342v-48h-403zM180.5 -199.5q12.5 34.5 18.5 50.5h-24l9 69h65l-8 -58l-46 -112h-34q7 16 19.5 50.5z" />
    <glyph glyph-name="lcommaaccent" unicode="&#x13c;" horiz-adv-x="268" 
d="M147 720h51l-101 -720h-51zM22.5 -199.5q12.5 34.5 18.5 50.5h-24l9 69h65l-8 -58l-46 -112h-34q7 16 19.5 50.5z" />
    <glyph glyph-name="Lcaron" unicode="&#x13d;" horiz-adv-x="532" 
d="M148 686h54l-90 -638h342v-48h-403zM535.5 566.5q12.5 34.5 18.5 50.5h-24l9 69h65l-8 -58l-45 -112h-34q6 16 18.5 50.5z" />
    <glyph glyph-name="lcaron" unicode="&#x13e;" horiz-adv-x="268" 
d="M147 720h51l-101 -720h-51zM258.5 566.5q12.5 34.5 18.5 50.5h-24l9 69h65l-8 -58l-45 -112h-34q6 16 18.5 50.5z" />
    <glyph glyph-name="Lslash" unicode="&#x141;" horiz-adv-x="534" 
d="M170 358l-44 -310h340l5 -48h-406l47 331l-79 -37l6 44l79 37l44 311h54l-40 -284l163 77l-7 -44z" />
    <glyph glyph-name="lslash" unicode="&#x142;" horiz-adv-x="297" 
d="M117 338l-99 -47l5 44l101 47l47 338h51l-44 -313l101 48l-6 -44l-101 -48l-51 -363h-51z" />
    <glyph glyph-name="Nacute" unicode="&#x143;" horiz-adv-x="694" 
d="M185 583h-4l-82 -583h-48l97 686h46l299 -583h4l82 583h48l-97 -686h-48zM463 895h65l-1 -3l-131 -142h-50z" />
    <glyph glyph-name="nacute" unicode="&#x144;" horiz-adv-x="593" 
d="M441 354q0 61 -32 91t-92 30q-44 0 -83 -21t-65 -58t-32 -82l-44 -314h-51l72 511h34v-76q32 40 80.5 63t99.5 23q75 0 120 -38.5t45 -114.5q0 -13 -4 -46t-11.5 -85.5l-11.5 -80.5l-22 -156h-50q47 335 47 354zM408 720h65l-1 -3l-131 -142h-50z" />
    <glyph glyph-name="Ncommaaccent" unicode="&#x145;" horiz-adv-x="694" 
d="M185 583h-4l-82 -583h-48l97 686h46l299 -583h4l82 583h48l-97 -686h-48zM261.5 -199.5q12.5 34.5 18.5 50.5h-24l9 69h65l-8 -58l-46 -112h-34q7 16 19.5 50.5z" />
    <glyph glyph-name="ncommaaccent" unicode="&#x146;" horiz-adv-x="593" 
d="M441 354q0 61 -32 91t-92 30q-44 0 -83 -21t-65 -58t-32 -82l-44 -314h-51l72 511h34v-76q32 40 80.5 63t99.5 23q75 0 120 -38.5t45 -114.5q0 -13 -4 -46t-11.5 -85.5l-11.5 -80.5l-22 -156h-50q47 335 47 354zM194.5 -199.5q12.5 34.5 18.5 50.5h-24l9 69h65l-8 -58
l-46 -112h-34q7 16 19.5 50.5z" />
    <glyph glyph-name="Ncaron" unicode="&#x147;" horiz-adv-x="694" 
d="M185 583h-4l-82 -583h-48l97 686h46l299 -583h4l82 583h48l-97 -686h-48zM294 895l89 -97l117 97h60l-155 -145h-58l-113 145h60z" />
    <glyph glyph-name="ncaron" unicode="&#x148;" horiz-adv-x="593" 
d="M441 354q0 61 -32 91t-92 30q-44 0 -83 -21t-65 -58t-32 -82l-44 -314h-51l72 511h34v-76q32 40 80.5 63t99.5 23q75 0 120 -38.5t45 -114.5q0 -13 -4 -46t-11.5 -85.5l-11.5 -80.5l-22 -156h-50q47 335 47 354zM239 720l89 -97l117 97h60l-155 -145h-58l-113 145h60z
" />
    <glyph glyph-name="Omacron" unicode="&#x14c;" horiz-adv-x="690" 
d="M117 42.5q-60 52.5 -60 185.5q0 49 11 128q25 191 107 265.5t207 74.5q106 0 166 -52.5t60 -185.5q0 -40 -11 -128q-24 -191 -106 -265.5t-208 -74.5q-106 0 -166 52.5zM455 99q65 61 87 219q13 97 13 136q0 108 -48 151t-132 43q-99 0 -164 -61t-88 -219
q-13 -89 -13 -136q0 -108 47.5 -151t132.5 -43q100 0 165 61zM249 911h318l-8 -45h-318z" />
    <glyph glyph-name="omacron" unicode="&#x14d;" horiz-adv-x="576" 
d="M90.5 43q-49.5 53 -49.5 149q0 84 28.5 159.5t87 122.5t143.5 47t134.5 -53t49.5 -149q0 -84 -28.5 -159.5t-87 -122.5t-143.5 -47t-134.5 53zM345.5 76.5q45.5 40.5 66.5 104.5t21 136q0 77 -38.5 117.5t-101.5 40.5q-68 0 -113.5 -41.5t-66.5 -105.5t-21 -135
q0 -77 38.5 -117t101.5 -40q68 0 113.5 40.5zM177 736h318l-8 -45h-318z" />
    <glyph glyph-name="Ohungarumlaut" unicode="&#x150;" horiz-adv-x="690" 
d="M117 42.5q-60 52.5 -60 185.5q0 49 11 128q25 191 107 265.5t207 74.5q106 0 166 -52.5t60 -185.5q0 -40 -11 -128q-24 -191 -106 -265.5t-208 -74.5q-106 0 -166 52.5zM455 99q65 61 87 219q13 97 13 136q0 108 -48 151t-132 43q-99 0 -164 -61t-88 -219
q-13 -89 -13 -136q0 -108 47.5 -151t132.5 -43q100 0 165 61zM406 895h64v-4l-131 -141h-50zM531 895h64v-4l-131 -141h-50z" />
    <glyph glyph-name="ohungarumlaut" unicode="&#x151;" horiz-adv-x="576" 
d="M90.5 43q-49.5 53 -49.5 149q0 84 28.5 159.5t87 122.5t143.5 47t134.5 -53t49.5 -149q0 -84 -28.5 -159.5t-87 -122.5t-143.5 -47t-134.5 53zM345.5 76.5q45.5 40.5 66.5 104.5t21 136q0 77 -38.5 117.5t-101.5 40.5q-68 0 -113.5 -41.5t-66.5 -105.5t-21 -135
q0 -77 38.5 -117t101.5 -40q68 0 113.5 40.5zM334 720h64v-4l-131 -141h-50zM459 720h64v-4l-131 -141h-50z" />
    <glyph glyph-name="OE" unicode="&#x152;" horiz-adv-x="1031" 
d="M542 88q-42 -54 -99 -76t-129 -22q-106 0 -166 52.5t-60 185.5q0 49 11 128q25 191 107 265.5t207 74.5q70 0 120.5 -22t77.5 -74l13 86h424l-17 -48h-360l-37 -264h319l-7 -48h-319l-39 -278h369v-48h-430zM486 99q65 61 87 219q13 97 13 136q0 108 -48 151t-132 43
q-99 0 -164 -61t-88 -219q-13 -89 -13 -136q0 -108 47.5 -151t132.5 -43q100 0 165 61z" />
    <glyph glyph-name="oe" unicode="&#x153;" horiz-adv-x="933" 
d="M428 489.5q45 -31.5 64 -90.5q33 57 84.5 89.5t120.5 32.5q78 0 125.5 -44.5t47.5 -125.5q0 -17 -3 -49t-8 -52h-362q-5 -32 -5 -58q0 -76 38 -116t100 -40q67 0 113 38.5t57 114.5h50q-13 -94 -74.5 -146.5t-152.5 -52.5q-65 0 -109.5 31.5t-61.5 90.5
q-33 -57 -85.5 -89.5t-122.5 -32.5q-85 0 -134.5 53t-49.5 149q0 84 28.5 159.5t87 122.5t143.5 47q64 0 109 -31.5zM364.5 76.5q45.5 40.5 66.5 104.5t21 136q0 77 -38.5 117.5t-101.5 40.5q-68 0 -113.5 -41.5t-66.5 -105.5t-21 -135q0 -77 38.5 -117t101.5 -40
q68 0 113.5 40.5zM572.5 429q-50.5 -46 -68.5 -133h311q5 29 5 50q0 63 -36 96t-94 33q-67 0 -117.5 -46z" />
    <glyph glyph-name="Racute" unicode="&#x154;" horiz-adv-x="670" 
d="M548.5 -1.5q-7.5 -1.5 -16.5 -1.5q-63 0 -63 88q0 16 4 52q1 10 2 22.5t1 26.5q0 84 -34 112t-71 28h-221l-45 -326h-54l96 686h279q76 0 122 -42t46 -113q0 -40 -20 -78.5t-54 -65t-74 -33.5v-5q0 4 24 -9t43 -45.5t19 -90.5q0 -22 -6 -68q-4 -40 -4 -49q0 -33 8 -45
t17.5 -16t12.5 -6l-2 -19q-2 -1 -9.5 -2.5zM455.5 394q37.5 20 60.5 54t23 73q0 55 -31.5 86t-85.5 31h-228l-37 -264h220q41 0 78.5 20zM421 895h65l-1 -3l-131 -142h-50z" />
    <glyph glyph-name="racute" unicode="&#x155;" horiz-adv-x="489" 
d="M397 368q0 44 -25 75.5t-83 31.5q-46 0 -78.5 -24.5t-50 -59.5t-22.5 -67l-45 -324h-51l72 511h34v-76q0 4 19 26t54 41t84 19q70 0 106 -38.5t36 -99.5q0 -15 -3 -35.5t-4 -19.5h-47q4 24 4 40zM233 720h65l-1 -3l-131 -142h-50z" />
    <glyph glyph-name="Rcommaaccent" unicode="&#x156;" horiz-adv-x="670" 
d="M548.5 -1.5q-7.5 -1.5 -16.5 -1.5q-63 0 -63 88q0 16 4 52q1 10 2 22.5t1 26.5q0 84 -34 112t-71 28h-221l-45 -326h-54l96 686h279q76 0 122 -42t46 -113q0 -40 -20 -78.5t-54 -65t-74 -33.5v-5q0 4 24 -9t43 -45.5t19 -90.5q0 -22 -6 -68q-4 -40 -4 -49q0 -33 8 -45
t17.5 -16t12.5 -6l-2 -19q-2 -1 -9.5 -2.5zM455.5 394q37.5 20 60.5 54t23 73q0 55 -31.5 86t-85.5 31h-228l-37 -264h220q41 0 78.5 20zM249.5 -199.5q12.5 34.5 18.5 50.5h-24l9 69h65l-8 -58l-46 -112h-34q7 16 19.5 50.5z" />
    <glyph glyph-name="rcommaaccent" unicode="&#x157;" horiz-adv-x="489" 
d="M397 368q0 44 -25 75.5t-83 31.5q-46 0 -78.5 -24.5t-50 -59.5t-22.5 -67l-45 -324h-51l72 511h34v-76q0 4 19 26t54 41t84 19q70 0 106 -38.5t36 -99.5q0 -15 -3 -35.5t-4 -19.5h-47q4 24 4 40zM18.5 -199.5q12.5 34.5 18.5 50.5h-24l9 69h65l-8 -58l-46 -112h-34
q7 16 19.5 50.5z" />
    <glyph glyph-name="Rcaron" unicode="&#x158;" horiz-adv-x="670" 
d="M548.5 -1.5q-7.5 -1.5 -16.5 -1.5q-63 0 -63 88q0 16 4 52q1 10 2 22.5t1 26.5q0 84 -34 112t-71 28h-221l-45 -326h-54l96 686h279q76 0 122 -42t46 -113q0 -40 -20 -78.5t-54 -65t-74 -33.5v-5q0 4 24 -9t43 -45.5t19 -90.5q0 -22 -6 -68q-4 -40 -4 -49q0 -33 8 -45
t17.5 -16t12.5 -6l-2 -19q-2 -1 -9.5 -2.5zM455.5 394q37.5 20 60.5 54t23 73q0 55 -31.5 86t-85.5 31h-228l-37 -264h220q41 0 78.5 20zM252 895l89 -97l117 97h60l-155 -145h-58l-113 145h60z" />
    <glyph glyph-name="rcaron" unicode="&#x159;" horiz-adv-x="489" 
d="M397 368q0 44 -25 75.5t-83 31.5q-46 0 -78.5 -24.5t-50 -59.5t-22.5 -67l-45 -324h-51l72 511h34v-76q0 4 19 26t54 41t84 19q70 0 106 -38.5t36 -99.5q0 -15 -3 -35.5t-4 -19.5h-47q4 24 4 40zM64 720l89 -97l117 97h60l-155 -145h-58l-113 145h60z" />
    <glyph glyph-name="Sacute" unicode="&#x15a;" horiz-adv-x="629" 
d="M508 542q0 51 -44.5 78.5t-115.5 27.5q-83 0 -138 -34t-55 -106q0 -36 22.5 -58.5t56 -35t90.5 -27.5q68 -18 109 -35t70 -49.5t29 -85.5q0 -80 -38.5 -130.5t-100.5 -73.5t-134 -23q-101 0 -162 38t-61 123q0 14 2 30.5t4 23.5h51q-2 -6 -4.5 -23t-2.5 -27q0 -61 48 -89
t128 -28q92 0 153.5 39t61.5 128q0 39 -23.5 64t-58.5 38.5t-94 30.5q-65 17 -104.5 33.5t-67 47.5t-27.5 81q0 66 34.5 110t92 65t125.5 21q92 0 148 -36.5t56 -113.5q0 -19 -4 -43h-50q4 28 4 39zM431 895h65l-1 -3l-131 -142h-50z" />
    <glyph glyph-name="sacute" unicode="&#x15b;" horiz-adv-x="536" 
d="M75 128q0 -45 40 -68.5t112 -23.5q74 0 117 31.5t43 81.5q0 30 -19 48t-47.5 27t-76.5 18q-56 12 -90 23.5t-58 36.5t-24 69q0 42 23.5 76t71 54t115.5 20q62 0 102 -18t58 -45.5t18 -58.5q0 -9 -1.5 -19t-2.5 -11h-50q0 1 1.5 9t1.5 17q0 31 -28 55.5t-105 24.5
q-92 0 -122 -34t-30 -65q0 -28 18.5 -44.5t45.5 -25t74 -18.5q58 -12 93 -24t59.5 -38t24.5 -71q0 -87 -62.5 -126t-159.5 -39q-71 0 -114.5 20t-61.5 49t-18 59q0 20 6 39h50q-4 -12 -4 -29zM359 720h65l-1 -3l-131 -142h-50z" />
    <glyph glyph-name="Scedilla" unicode="&#x15e;" horiz-adv-x="629" 
d="M508 542q0 51 -44.5 78.5t-115.5 27.5q-83 0 -138 -34t-55 -106q0 -36 22.5 -58.5t56 -35t90.5 -27.5q68 -18 109 -35t70 -49.5t29 -85.5q0 -80 -38.5 -130.5t-100.5 -73.5t-134 -23q-101 0 -162 38t-61 123q0 14 2 30.5t4 23.5h51q-2 -6 -4.5 -23t-2.5 -27q0 -61 48 -89
t128 -28q92 0 153.5 39t61.5 128q0 39 -23.5 64t-58.5 38.5t-94 30.5q-65 17 -104.5 33.5t-67 47.5t-27.5 81q0 66 34.5 110t92 65t125.5 21q92 0 148 -36.5t56 -113.5q0 -19 -4 -43h-50q4 28 4 39zM243 -151q33 0 58.5 14t25.5 46q0 19 -15.5 29.5t-36.5 10.5h-22l5 34
q57 0 88.5 -13.5t31.5 -59.5q0 -58 -42 -82.5t-90 -24.5q-44 0 -76 13l6 46q22 -13 67 -13z" />
    <glyph glyph-name="scedilla" unicode="&#x15f;" horiz-adv-x="536" 
d="M75 128q0 -45 40 -68.5t112 -23.5q74 0 117 31.5t43 81.5q0 30 -19 48t-47.5 27t-76.5 18q-56 12 -90 23.5t-58 36.5t-24 69q0 42 23.5 76t71 54t115.5 20q62 0 102 -18t58 -45.5t18 -58.5q0 -9 -1.5 -19t-2.5 -11h-50q0 1 1.5 9t1.5 17q0 31 -28 55.5t-105 24.5
q-92 0 -122 -34t-30 -65q0 -28 18.5 -44.5t45.5 -25t74 -18.5q58 -12 93 -24t59.5 -38t24.5 -71q0 -87 -62.5 -126t-159.5 -39q-71 0 -114.5 20t-61.5 49t-18 59q0 20 6 39h50q-4 -12 -4 -29zM196 -151q33 0 58.5 14t25.5 46q0 19 -15.5 29.5t-36.5 10.5h-22l5 34
q57 0 88.5 -13.5t31.5 -59.5q0 -58 -42 -82.5t-90 -24.5q-44 0 -76 13l6 46q22 -13 67 -13z" />
    <glyph glyph-name="Scaron" unicode="&#x160;" horiz-adv-x="629" 
d="M275 895l89 -97l117 97h60l-155 -145h-58l-113 145h60zM508 542q0 51 -44.5 78.5t-115.5 27.5q-83 0 -138 -34t-55 -106q0 -36 22.5 -58.5t56 -35t90.5 -27.5q68 -18 109 -35t70 -49.5t29 -85.5q0 -80 -38.5 -130.5t-100.5 -73.5t-134 -23q-101 0 -162 38t-61 123
q0 14 2 30.5t4 23.5h51q-2 -6 -4.5 -23t-2.5 -27q0 -61 48 -89t128 -28q92 0 153.5 39t61.5 128q0 39 -23.5 64t-58.5 38.5t-94 30.5q-65 17 -104.5 33.5t-67 47.5t-27.5 81q0 66 34.5 110t92 65t125.5 21q92 0 148 -36.5t56 -113.5q0 -19 -4 -43h-50q4 28 4 39z" />
    <glyph glyph-name="scaron" unicode="&#x161;" horiz-adv-x="536" 
d="M204 720l89 -97l117 97h60l-155 -145h-58l-113 145h60zM75 128q0 -45 40 -68.5t112 -23.5q74 0 117 31.5t43 81.5q0 30 -19 48t-47.5 27t-76.5 18q-56 12 -90 23.5t-58 36.5t-24 69q0 42 23.5 76t71 54t115.5 20q62 0 102 -18t58 -45.5t18 -58.5q0 -9 -1.5 -19t-2.5 -11
h-50q0 1 1.5 9t1.5 17q0 31 -28 55.5t-105 24.5q-92 0 -122 -34t-30 -65q0 -28 18.5 -44.5t45.5 -25t74 -18.5q58 -12 93 -24t59.5 -38t24.5 -71q0 -87 -62.5 -126t-159.5 -39q-71 0 -114.5 20t-61.5 49t-18 59q0 20 6 39h50q-4 -12 -4 -29z" />
    <glyph glyph-name="uni0162" unicode="&#x162;" horiz-adv-x="575" 
d="M261 0h-52l90 638h-232l7 48h516l-7 -48h-232zM205 -151q33 0 58.5 14t25.5 46q0 19 -15.5 29.5t-36.5 10.5h-22l5 34q57 0 88.5 -13.5t31.5 -59.5q0 -58 -42 -82.5t-90 -24.5q-44 0 -76 13l6 46q22 -13 67 -13z" />
    <glyph glyph-name="uni0163" unicode="&#x163;" horiz-adv-x="344" 
d="M153 -10q-41 0 -64.5 21.5t-23.5 64.5q0 7 2 25l51 364h-56l7 46h56l41 163h33l-23 -163h119l-7 -46h-119l-51 -362q-2 -14 -2 -19q0 -29 13.5 -38.5t36.5 -9.5q11 0 30.5 5t33.5 11l-6 -45q-32 -17 -71 -17zM100 -151q33 0 58.5 14t25.5 46q0 19 -15.5 29.5t-36.5 10.5
h-22l5 34q57 0 88.5 -13.5t31.5 -59.5q0 -58 -42 -82.5t-90 -24.5q-44 0 -76 13l6 46q22 -13 67 -13z" />
    <glyph glyph-name="Tcaron" unicode="&#x164;" horiz-adv-x="575" 
d="M261 0h-52l90 638h-232l7 48h516l-7 -48h-232zM248 895l89 -97l117 97h60l-155 -145h-58l-113 145h60z" />
    <glyph glyph-name="tcaron" unicode="&#x165;" horiz-adv-x="344" 
d="M153 -10q-41 0 -64.5 21.5t-23.5 64.5q0 7 2 25l51 364h-56l7 46h56l41 163h33l-23 -163h119l-7 -46h-119l-51 -362q-2 -14 -2 -19q0 -29 13.5 -38.5t36.5 -9.5q11 0 30.5 5t33.5 11l-6 -45q-32 -17 -71 -17zM366.5 566.5q12.5 34.5 18.5 50.5h-24l9 69h65l-8 -58
l-45 -112h-34q6 16 18.5 50.5z" />
    <glyph glyph-name="Umacron" unicode="&#x16a;" horiz-adv-x="682" 
d="M554 220q-10 -69 -47 -121t-95 -80.5t-129 -28.5q-97 0 -153 51.5t-56 138.5q0 33 28.5 233.5t39.5 272.5h54l-43 -306q-5 -33 -12.5 -84.5t-10 -75.5t-2.5 -33q0 -69 41.5 -109t119.5 -40q87 0 143 50.5t68 133.5l65 464h54zM254 911h318l-8 -45h-318z" />
    <glyph glyph-name="umacron" unicode="&#x16b;" horiz-adv-x="617" 
d="M318.5 13q-47.5 -23 -97.5 -23q-75 0 -119 38t-44 114q0 29 20.5 173.5t28.5 195.5h51q-47 -317 -47 -354q0 -64 31.5 -92.5t92.5 -28.5q44 0 83 21t65 58t32 82l44 314h51q-10 -69 -36.5 -255.5t-26.5 -194.5q0 -25 23 -25t53 16l-6 -43q-30 -19 -63 -19q-31 0 -44.5 18
t-13.5 47q0 7 2 21q-32 -40 -79.5 -63zM182 736h318l-8 -45h-318z" />
    <glyph glyph-name="Uring" unicode="&#x16e;" horiz-adv-x="682" 
d="M554 220q-10 -69 -47 -121t-95 -80.5t-129 -28.5q-97 0 -153 51.5t-56 138.5q0 33 28.5 233.5t39.5 272.5h54l-43 -306q-5 -33 -12.5 -84.5t-10 -75.5t-2.5 -33q0 -69 41.5 -109t119.5 -40q87 0 143 50.5t68 133.5l65 464h54zM468 754q-34 -34 -82 -34q-38 0 -63 24.5
t-25 62.5q0 32 16.5 58t43.5 41t57 15q37 0 62 -24.5t25 -61.5q0 -47 -34 -81zM443.5 778q22.5 22 22.5 52q0 24 -16 39.5t-40 15.5q-30 0 -53 -22t-23 -52q0 -24 16.5 -39.5t40.5 -15.5q30 0 52.5 22z" />
    <glyph glyph-name="uring" unicode="&#x16f;" horiz-adv-x="617" 
d="M318.5 13q-47.5 -23 -97.5 -23q-75 0 -119 38t-44 114q0 29 20.5 173.5t28.5 195.5h51q-47 -317 -47 -354q0 -64 31.5 -92.5t92.5 -28.5q44 0 83 21t65 58t32 82l44 314h51q-10 -69 -36.5 -255.5t-26.5 -194.5q0 -25 23 -25t53 16l-6 -43q-30 -19 -63 -19q-31 0 -44.5 18
t-13.5 47q0 7 2 21q-32 -40 -79.5 -63zM396 579q-34 -34 -82 -34q-38 0 -63 24.5t-25 62.5q0 32 16.5 58t43.5 41t57 15q37 0 62 -24.5t25 -61.5q0 -47 -34 -81zM371.5 603q22.5 22 22.5 52q0 24 -16 39.5t-40 15.5q-30 0 -53 -22t-23 -52q0 -24 16.5 -39.5t40.5 -15.5
q30 0 52.5 22z" />
    <glyph glyph-name="Uhungarumlaut" unicode="&#x170;" horiz-adv-x="682" 
d="M554 220q-10 -69 -47 -121t-95 -80.5t-129 -28.5q-97 0 -153 51.5t-56 138.5q0 33 28.5 233.5t39.5 272.5h54l-43 -306q-5 -33 -12.5 -84.5t-10 -75.5t-2.5 -33q0 -69 41.5 -109t119.5 -40q87 0 143 50.5t68 133.5l65 464h54zM411 895h64v-4l-131 -141h-50zM536 895h64
v-4l-131 -141h-50z" />
    <glyph glyph-name="uhungarumlaut" unicode="&#x171;" horiz-adv-x="617" 
d="M318.5 13q-47.5 -23 -97.5 -23q-75 0 -119 38t-44 114q0 29 20.5 173.5t28.5 195.5h51q-47 -317 -47 -354q0 -64 31.5 -92.5t92.5 -28.5q44 0 83 21t65 58t32 82l44 314h51q-10 -69 -36.5 -255.5t-26.5 -194.5q0 -25 23 -25t53 16l-6 -43q-30 -19 -63 -19q-31 0 -44.5 18
t-13.5 47q0 7 2 21q-32 -40 -79.5 -63zM339 720h64v-4l-131 -141h-50zM464 720h64v-4l-131 -141h-50z" />
    <glyph glyph-name="Uogonek" unicode="&#x172;" horiz-adv-x="682" 
d="M619 686l-65 -466q-13 -87 -67.5 -146.5t-137.5 -76.5q-24 -16 -37.5 -30t-13.5 -34q0 -18 11 -25.5t28 -7.5q25 0 69 14l9 -33q-42 -24 -88 -24q-37 0 -62 14t-25 46q0 23 13 40t36 33h-6q-97 0 -153 51.5t-56 138.5q0 33 28.5 233.5t39.5 272.5h54l-43 -306
q-5 -33 -12.5 -84.5t-10 -75.5t-2.5 -33q0 -69 41.5 -109t119.5 -40q87 0 143 50.5t68 133.5l65 464h54z" />
    <glyph glyph-name="uogonek" unicode="&#x173;" horiz-adv-x="617" 
d="M576 -119q-42 -24 -88 -24q-37 0 -62 14t-25 46q0 23 13 40t36 33q-29 1 -41.5 19t-12.5 46q0 7 2 21q-32 -40 -79.5 -63t-97.5 -23q-75 0 -119 38t-44 114q0 29 20.5 173.5t28.5 195.5h51q-47 -317 -47 -354q0 -64 31.5 -92.5t92.5 -28.5q44 0 83 21t65 58t32 82l44 314
h51q-10 -69 -36.5 -255.5t-26.5 -194.5q0 -25 23 -25t53 16l-6 -43l-17 -9h16l-4 -2q-25 -15 -39 -29.5t-14 -35.5q0 -18 11 -25.5t28 -7.5q25 0 69 14z" />
    <glyph glyph-name="Ydieresis" unicode="&#x178;" horiz-adv-x="570" 
d="M284 819l-9 -69h-65l9 69h65zM460 819l-9 -69h-65l9 69h65zM252 0h-54l38 266l-187 420h63l158 -365h5l265 365h55l-305 -420z" />
    <glyph glyph-name="Zacute" unicode="&#x179;" horiz-adv-x="595" 
d="M-5 25l499 613h-389l7 48h471l-4 -24l-500 -614h422l-7 -48h-503zM444 895h65l-1 -3l-131 -142h-50z" />
    <glyph glyph-name="zacute" unicode="&#x17a;" horiz-adv-x="463" 
d="M-1 24l339 441h-260l6 46h335l-3 -24l-340 -441h286l-6 -46h-360zM343 720h65l-1 -3l-131 -142h-50z" />
    <glyph glyph-name="Zdotaccent" unicode="&#x17b;" horiz-adv-x="595" 
d="M-5 25l499 613h-389l7 48h471l-4 -24l-500 -614h422l-7 -48h-503zM426 801.5q-22 -22.5 -54 -22.5q-24 0 -41 16t-17 40q0 31 22 53.5t54 22.5q25 0 41.5 -16.5t16.5 -40.5q0 -30 -22 -52.5z" />
    <glyph glyph-name="zdotaccent" unicode="&#x17c;" horiz-adv-x="463" 
d="M-1 24l339 441h-260l6 46h335l-3 -24l-340 -441h286l-6 -46h-360zM325 626.5q-22 -22.5 -54 -22.5q-24 0 -41 16t-17 40q0 31 22 53.5t54 22.5q25 0 41.5 -16.5t16.5 -40.5q0 -30 -22 -52.5z" />
    <glyph glyph-name="Zcaron" unicode="&#x17d;" horiz-adv-x="595" 
d="M263 895l89 -97l117 97h60l-155 -145h-58l-113 145h60zM-5 25l499 613h-389l7 48h471l-4 -24l-500 -614h422l-7 -48h-503z" />
    <glyph glyph-name="zcaron" unicode="&#x17e;" horiz-adv-x="463" 
d="M172 720l89 -97l117 97h60l-155 -145h-58l-113 145h60zM-1 24l339 441h-260l6 46h335l-3 -24l-340 -441h286l-6 -46h-360z" />
    <glyph glyph-name="florin" unicode="&#x192;" horiz-adv-x="340" 
d="M295.5 677q-18.5 5 -29.5 5q-26 0 -43.5 -13.5t-22.5 -53.5l-15 -104h119l-6 -46h-119l-76 -538q-8 -55 -39.5 -83t-78.5 -28q-18 0 -36 4.5t-29 12.5l6 45q12 -6 30.5 -11t29.5 -5q26 0 43.5 13.5t22.5 53.5l76 536h-56l6 46h56l15 106q8 55 39.5 83t78.5 28
q18 0 36 -4.5t29 -12.5l-6 -45q-12 6 -30.5 11z" />
    <glyph glyph-name="Scommaaccent" unicode="&#x218;" horiz-adv-x="629" 
d="M508 542q0 51 -44.5 78.5t-115.5 27.5q-83 0 -138 -34t-55 -106q0 -36 22.5 -58.5t56 -35t90.5 -27.5q68 -18 109 -35t70 -49.5t29 -85.5q0 -80 -38.5 -130.5t-100.5 -73.5t-134 -23q-101 0 -162 38t-61 123q0 14 2 30.5t4 23.5h51q-2 -6 -4.5 -23t-2.5 -27q0 -61 48 -89
t128 -28q92 0 153.5 39t61.5 128q0 39 -23.5 64t-58.5 38.5t-94 30.5q-65 17 -104.5 33.5t-67 47.5t-27.5 81q0 66 34.5 110t92 65t125.5 21q92 0 148 -36.5t56 -113.5q0 -19 -4 -43h-50q4 28 4 39zM229.5 -199.5q12.5 34.5 18.5 50.5h-24l9 69h65l-8 -58l-46 -112h-34
q7 16 19.5 50.5z" />
    <glyph glyph-name="scommaaccent" unicode="&#x219;" horiz-adv-x="536" 
d="M75 128q0 -45 40 -68.5t112 -23.5q74 0 117 31.5t43 81.5q0 30 -19 48t-47.5 27t-76.5 18q-56 12 -90 23.5t-58 36.5t-24 69q0 42 23.5 76t71 54t115.5 20q62 0 102 -18t58 -45.5t18 -58.5q0 -9 -1.5 -19t-2.5 -11h-50q0 1 1.5 9t1.5 17q0 31 -28 55.5t-105 24.5
q-92 0 -122 -34t-30 -65q0 -28 18.5 -44.5t45.5 -25t74 -18.5q58 -12 93 -24t59.5 -38t24.5 -71q0 -87 -62.5 -126t-159.5 -39q-71 0 -114.5 20t-61.5 49t-18 59q0 20 6 39h50q-4 -12 -4 -29zM182.5 -199.5q12.5 34.5 18.5 50.5h-24l9 69h65l-8 -58l-46 -112h-34
q7 16 19.5 50.5z" />
    <glyph glyph-name="uni021A" unicode="&#x21a;" horiz-adv-x="575" 
d="M261 0h-52l90 638h-232l7 48h516l-7 -48h-232zM191.5 -199.5q12.5 34.5 18.5 50.5h-24l9 69h65l-8 -58l-46 -112h-34q7 16 19.5 50.5z" />
    <glyph glyph-name="uni021B" unicode="&#x21b;" horiz-adv-x="344" 
d="M153 -10q-41 0 -64.5 21.5t-23.5 64.5q0 7 2 25l51 364h-56l7 46h56l41 163h33l-23 -163h119l-7 -46h-119l-51 -362q-2 -14 -2 -19q0 -29 13.5 -38.5t36.5 -9.5q11 0 30.5 5t33.5 11l-6 -45q-32 -17 -71 -17zM86.5 -199.5q12.5 34.5 18.5 50.5h-24l9 69h65l-8 -58
l-46 -112h-34q7 16 19.5 50.5z" />
    <glyph glyph-name="circumflex" unicode="&#x2c6;" horiz-adv-x="536" 
d="M293 720l113 -145h-60l-89 97l-117 -97h-60l155 145h58z" />
    <glyph glyph-name="caron" unicode="&#x2c7;" horiz-adv-x="536" 
d="M161 720l89 -97l117 97h60l-155 -145h-58l-113 145h60z" />
    <glyph glyph-name="uni02C9" unicode="&#x2c9;" horiz-adv-x="460" 
d="M76 736h318l-8 -45h-318z" />
    <glyph glyph-name="breve" unicode="&#x2d8;" horiz-adv-x="520" 
d="M168.5 630q-40.5 17 -64 44t-23.5 55q0 5 1 8h56q7 -36 41 -55.5t85 -19.5q50 0 90 19.5t57 55.5h56q-4 -29 -34.5 -58t-77.5 -47.5t-98 -18.5q-48 0 -88.5 17z" />
    <glyph glyph-name="dotaccent" unicode="&#x2d9;" horiz-adv-x="280" 
d="M190 626.5q-22 -22.5 -54 -22.5q-24 0 -41 16t-17 40q0 31 22 53.5t54 22.5q25 0 41.5 -16.5t16.5 -40.5q0 -30 -22 -52.5z" />
    <glyph glyph-name="ring" unicode="&#x2da;" horiz-adv-x="340" 
d="M241 579q-34 -34 -82 -34q-38 0 -63 24.5t-25 62.5q0 32 16.5 58t43.5 41t57 15q37 0 62 -24.5t25 -61.5q0 -47 -34 -81zM216.5 603q22.5 22 22.5 52q0 24 -16 39.5t-40 15.5q-30 0 -53 -22t-23 -52q0 -24 16.5 -39.5t40.5 -15.5q30 0 52.5 22z" />
    <glyph glyph-name="ogonek" unicode="&#x2db;" horiz-adv-x="340" 
d="M161 -143q-37 0 -62 14t-25 46q0 26 17.5 45.5t47.5 37.5h50l-4 -2q-25 -15 -39 -29.5t-14 -35.5q0 -18 11 -25.5t28 -7.5q25 0 69 14l9 -33q-42 -24 -88 -24z" />
    <glyph glyph-name="tilde" unicode="&#x2dc;" horiz-adv-x="364" 
d="M333.5 660q-27.5 -26 -80.5 -26q-22 0 -41 4t-48 13q-45 15 -74 15q-25 0 -39.5 -7.5t-21.5 -24.5h-37q4 30 31.5 56t80.5 26q22 0 41 -4t48 -13q45 -15 74 -15q25 0 39.5 7.5t21.5 24.5h37q-4 -30 -31.5 -56z" />
    <glyph glyph-name="hungarumlaut" unicode="&#x2dd;" horiz-adv-x="442" 
d="M156 720h64v-4l-131 -141h-50zM281 720h64v-4l-131 -141h-50z" />
    <glyph glyph-name="uni0326" unicode="&#x326;" horiz-adv-x="0" 
d="M-215.5 -199.5q12.5 34.5 18.5 50.5h-24l9 69h65l-8 -58l-46 -112h-34q7 16 19.5 50.5z" />
    <glyph glyph-name="uni0394" unicode="&#x394;" horiz-adv-x="675" 
d="M354 686h88l150 -638l-7 -48h-567l7 48zM528 55l-137 584l-301 -584h438z" />
    <glyph glyph-name="uni03A9" unicode="&#x3a9;" horiz-adv-x="736" 
d="M608.5 219.5q-34.5 -119.5 -111.5 -175.5l71 4h45l-6 -48h-247l4 29q82 10 137 73.5t74 203.5q15 108 15 148q0 108 -47.5 151t-131.5 43q-100 0 -165 -61t-87 -219q-8 -58 -11.5 -91t-3.5 -51q0 -98 35.5 -143t102.5 -54l-4 -29h-247l6 48h45l73 -4q-63 61 -63 189
q0 40 12 123q29 192 109 266t204 74q106 0 166 -53.5t60 -186.5q0 -117 -34.5 -236.5z" />
    <glyph glyph-name="uni03BC" unicode="&#x3bc;" horiz-adv-x="598" 
d="M353 57q39 21 65 58t32 82l44 314h51q-63 -445 -63 -451q0 -24 23 -24q24 0 52 16l-6 -43q-32 -19 -67 -19q-28 0 -40.5 18t-12.5 46q0 8 2 22q-32 -41 -78.5 -63.5t-96.5 -22.5q-44 0 -80.5 15.5t-55.5 45.5q0 -2 0.5 -7.5t0.5 -14.5q0 -10 -2 -28l-23 -162h-51l95 672
h51q-48 -334 -48 -355q0 -59 33 -89.5t92 -30.5q44 0 83 21z" />
    <glyph glyph-name="pi" unicode="&#x3c0;" horiz-adv-x="627" 
d="M459 305q-17 -113 -24 -170t-7 -86q0 -33 4 -49h-48q-6 18 -6 45q0 30 4 64t25 180l25 176h-205q-20 -109 -62.5 -255.5t-76.5 -209.5h-49q37 73 77.5 214.5t60.5 250.5q-87 0 -124 -13l-6 32q47 26 143 26h395l-13 -45h-90z" />
    <glyph glyph-name="endash" unicode="&#x2013;" horiz-adv-x="637" 
d="M68 297h500l-9 -58h-499z" />
    <glyph glyph-name="emdash" unicode="&#x2014;" horiz-adv-x="1056" 
d="M71 296h910l-9 -57h-909z" />
    <glyph glyph-name="quoteleft" unicode="&#x2018;" horiz-adv-x="224" 
d="M151.5 635.5q-12.5 -34.5 -18.5 -50.5h24l-9 -69h-65l8 58l45 112h34q-6 -16 -18.5 -50.5z" />
    <glyph glyph-name="quoteright" unicode="&#x2019;" horiz-adv-x="218" 
d="M114.5 566.5q12.5 34.5 18.5 50.5h-24l9 69h65l-8 -58l-45 -112h-34q6 16 18.5 50.5z" />
    <glyph glyph-name="quotesinglbase" unicode="&#x201a;" horiz-adv-x="237" 
d="M42.5 -50.5q12.5 34.5 18.5 50.5h-24l9 69h65l-8 -58l-45 -112h-34q6 16 18.5 50.5z" />
    <glyph glyph-name="quotedblleft" unicode="&#x201c;" horiz-adv-x="366" 
d="M151.5 635.5q-12.5 -34.5 -18.5 -50.5h24l-9 -69h-65l8 58l45 112h34q-6 -16 -18.5 -50.5zM250.5 635.5q-12.5 -34.5 -18.5 -50.5h24l-9 -69h-65l8 58l45 112h34q-6 -16 -18.5 -50.5z" />
    <glyph glyph-name="quotedblright" unicode="&#x201d;" horiz-adv-x="360" 
d="M114.5 566.5q12.5 34.5 18.5 50.5h-24l9 69h65l-8 -58l-45 -112h-34q6 16 18.5 50.5zM213.5 566.5q12.5 34.5 18.5 50.5h-24l9 69h65l-8 -58l-45 -112h-34q6 16 18.5 50.5z" />
    <glyph glyph-name="quotedblbase" unicode="&#x201e;" horiz-adv-x="379" 
d="M42.5 -50.5q12.5 34.5 18.5 50.5h-24l9 69h65l-8 -58l-45 -112h-34q6 16 18.5 50.5zM141.5 -50.5q12.5 34.5 18.5 50.5h-24l9 69h65l-8 -58l-45 -112h-34q6 16 18.5 50.5z" />
    <glyph glyph-name="dagger" unicode="&#x2020;" horiz-adv-x="511" 
d="M207 -175h-65l106 637l-207 -16l9 64l202 -16l11 192h65l-43 -192l206 16l-9 -64l-201 16z" />
    <glyph glyph-name="daggerdbl" unicode="&#x2021;" horiz-adv-x="531" 
d="M434 0l-202 16l-11 -192h-65l43 192l-206 -16l9 64l201 -16l14 208l45 206l-207 -16l9 64l202 -16l11 192h65l-43 -192l206 16l-9 -64l-201 16l-13 -206l-46 -208l207 16z" />
    <glyph glyph-name="bullet" unicode="&#x2022;" horiz-adv-x="600" 
d="M429 284.5q-20 -36.5 -57 -59t-86 -22.5q-52 0 -87 35t-35 86q0 44 20 80.5t56.5 58.5t84.5 22q54 0 89 -35t35 -88q0 -41 -20 -77.5z" />
    <glyph glyph-name="ellipsis" unicode="&#x2026;" horiz-adv-x="734" 
d="M103 69l-9 -69h-65l9 69h65zM316 69l-9 -69h-65l9 69h65zM528 69l-9 -69h-65l9 69h65z" />
    <glyph glyph-name="perthousand" unicode="&#x2030;" horiz-adv-x="1034" 
d="M259 368q-36 -31 -93 -31q-49 0 -76.5 28.5t-27.5 72.5q0 12 1 19l16 110q8 57 43.5 88.5t92.5 31.5q49 0 77 -28.5t28 -72.5q0 -13 -1 -19l-16 -110q-8 -58 -44 -89zM78 0l514 686h59l-513 -686h-60zM270 584q0 26 -15.5 41.5t-45.5 15.5q-32 0 -54 -20t-26 -50
l-16 -118q-1 -4 -1 -12q0 -25 16.5 -41.5t44.5 -16.5q33 0 54.5 20t25.5 50l16 118q1 4 1 13zM603 30q-36 -31 -93 -31q-49 0 -76.5 28.5t-27.5 72.5q0 12 1 19l16 110q8 57 43.5 88.5t92.5 31.5q49 0 77 -28.5t28 -72.5q0 -13 -1 -19l-16 -110q-8 -58 -44 -89zM933 30
q-36 -31 -93 -31q-49 0 -76.5 28.5t-27.5 72.5q0 12 1 19l16 110q8 57 43.5 88.5t92.5 31.5q49 0 77 -28.5t28 -72.5q0 -13 -1 -19l-16 -110q-8 -58 -44 -89zM614 246q0 26 -15.5 41.5t-45.5 15.5q-32 0 -54 -20t-26 -50l-16 -118q-1 -4 -1 -12q0 -25 16.5 -41.5t44.5 -16.5
q33 0 54.5 20t25.5 50l16 118q1 4 1 13zM944 246q0 26 -15.5 41.5t-45.5 15.5q-32 0 -54 -20t-26 -50l-16 -118q-1 -4 -1 -12q0 -25 16.5 -41.5t44.5 -16.5q33 0 54.5 20t25.5 50l16 118q1 4 1 13z" />
    <glyph glyph-name="guilsinglleft" unicode="&#x2039;" horiz-adv-x="276" 
d="M55 337l147 174h41l-121 -174l72 -174h-41z" />
    <glyph glyph-name="guilsinglright" unicode="&#x203a;" horiz-adv-x="278" 
d="M159 337l-73 174h41l99 -174l-148 -174h-41z" />
    <glyph glyph-name="fraction" unicode="&#x2044;" horiz-adv-x="479" 
d="M-36 0l516 686h44l-513 -686h-47z" />
    <glyph glyph-name="Euro" unicode="&#x20ac;" horiz-adv-x="562" 
d="M151 433q27 76 79.5 135.5t124.5 93.5t156 34q33 0 57 -4l-7 -50q-27 6 -57 6q-104 0 -182.5 -59t-115.5 -156h224l-7 -48h-232q-12 -43 -12 -90h232l-7 -48h-223q12 -96 73 -153.5t164 -57.5q28 0 58 5l-6 -46q-33 -5 -58 -5q-83 0 -145.5 32.5t-97.5 91t-42 133.5h-104
l7 48h95q0 6 2 35.5t10 54.5h-95l7 48h102z" />
    <glyph glyph-name="uni2113" unicode="&#x2113;" horiz-adv-x="470" 
d="M153 147q-4 -33 -4 -44q0 -39 18.5 -53t46.5 -14q38 0 95 16l-7 -45q-17 -8 -42 -12.5t-48 -4.5q-53 0 -83.5 27.5t-30.5 81.5q0 21 3 41l13 90h-82l6 45h82l26 187l7 50q26 188 159 188q62 0 95.5 -38.5t33.5 -111.5q0 -66 -27 -137.5t-89 -124t-160 -57.5zM171 276
q79 5 128.5 49.5t70.5 105t21 117.5q0 107 -78 107q-46 0 -72.5 -36t-36.5 -109l-7 -50z" />
    <glyph glyph-name="trademark" unicode="&#x2122;" horiz-adv-x="898" 
d="M213 289h-42l50 359h-129l5 38h299l-5 -38h-128zM775 627l-106 -181q-64 -106 -93 -157h-30l-102 334l-47 -334h-36l55 397h57l100 -340l197 340h56l-55 -397h-41z" />
    <glyph glyph-name="uni2126" unicode="&#x2126;" horiz-adv-x="736" 
d="M608.5 219.5q-34.5 -119.5 -111.5 -175.5l71 4h45l-6 -48h-247l4 29q82 10 137 73.5t74 203.5q15 108 15 148q0 108 -47.5 151t-131.5 43q-100 0 -165 -61t-87 -219q-8 -58 -11.5 -91t-3.5 -51q0 -98 35.5 -143t102.5 -54l-4 -29h-247l6 48h45l73 -4q-63 61 -63 189
q0 40 12 123q29 192 109 266t204 74q106 0 166 -53.5t60 -186.5q0 -117 -34.5 -236.5z" />
    <glyph glyph-name="estimated" unicode="&#x212e;" horiz-adv-x="780" 
d="M564.5 656.5q68.5 -39.5 106.5 -113.5t38 -175v-52h-510v-175q34 -52 90 -79t126 -27q67 0 120 25.5t87 74.5l38 -30q-42 -56 -104.5 -85.5t-142.5 -29.5q-92 0 -163 39.5t-110 114t-39 175.5v48q0 101 38 175.5t106.5 114t159.5 39.5t159.5 -39.5zM199 364h409v190
q-33 47 -85 72t-117 25q-67 0 -120.5 -26t-86.5 -76v-185z" />
    <glyph glyph-name="partialdiff" unicode="&#x2202;" horiz-adv-x="568" 
d="M333 696q83 0 133.5 -50t50.5 -132q0 -19 -3 -39l-37 -264q-9 -66 -45 -116t-90 -77.5t-117 -27.5q-87 0 -140 50t-53 133q0 71 34 130t91 92.5t122 33.5q53 0 96.5 -23.5t65.5 -64.5l20 140q2 18 2 27q0 62 -37.5 101t-100.5 39h-80l7 48h81zM329 65q44 27 70 73.5
t26 102.5q0 62 -40 101t-105 39q-52 0 -96.5 -27.5t-71 -74t-26.5 -99.5q0 -63 40.5 -102.5t105.5 -39.5q53 0 97 27z" />
    <glyph glyph-name="uni2206" unicode="&#x2206;" horiz-adv-x="675" 
d="M354 686h88l150 -638l-7 -48h-567l7 48zM528 55l-137 584l-301 -584h438z" />
    <glyph glyph-name="product" unicode="&#x220f;" horiz-adv-x="749" 
d="M493 -96h-56l104 743h-301l-104 -743h-56l104 743h-114l7 48h641l-7 -48h-114z" />
    <glyph glyph-name="summation" unicode="&#x2211;" horiz-adv-x="605" 
d="M-24 -65l335 367l-220 368l3 25h479l-7 -48h-390v-4l200 -336l-315 -345l1 -3h423l-8 -55h-505z" />
    <glyph glyph-name="minus" unicode="&#x2212;" 
d="M561 283l-9 -57h-511l9 57h511z" />
    <glyph glyph-name="uni2215" unicode="&#x2215;" horiz-adv-x="479" 
d="M-36 0l516 686h44l-513 -686h-47z" />
    <glyph glyph-name="uni2219" unicode="&#x2219;" horiz-adv-x="235" 
d="M154 323l-9 -69h-65l9 69h65z" />
    <glyph glyph-name="radical" unicode="&#x221a;" horiz-adv-x="565" 
d="M164 -146l-98 453l-78 -28l-8 42l137 50l79 -371q6 -54 6 -67l326 872h51l-354 -951h-61z" />
    <glyph glyph-name="infinity" unicode="&#x221e;" horiz-adv-x="766" 
d="M693.5 216.5q-22.5 -41.5 -62.5 -66t-89 -24.5q-45 0 -81 28t-84 91q-59 -58 -105 -88.5t-100 -30.5t-90.5 37.5t-36.5 92.5q0 53 24.5 93t65 61.5t87.5 21.5q51 0 89 -31.5t78 -87.5l10 9q56 54 98.5 82t94.5 28q57 0 90.5 -34t33.5 -90q0 -50 -22.5 -91.5zM256.5 192.5
q34.5 23.5 80.5 65.5l20 18l-5 8q-35 52 -66 79.5t-77 27.5q-32 0 -59 -18.5t-42.5 -49t-15.5 -63.5q0 -39 25 -65t68 -26q37 0 71.5 23.5zM509.5 367q-35.5 -24 -75.5 -63q3 3 -26 -23q49 -63 78 -87.5t66 -24.5q36 0 62 19.5t40 50t14 61.5q0 43 -23.5 67t-63.5 24
q-36 0 -71.5 -24z" />
    <glyph glyph-name="integral" unicode="&#x222b;" horiz-adv-x="266" 
d="M183.5 722q44.5 28 95.5 28l-6 -38q-16 0 -38 -7.5t-39 -22.5t-20 -36q-10 -101 -39 -395t-42 -389q-8 -57 -51 -84.5t-94 -27.5l6 38q15 0 36 8t37.5 23t19.5 37q10 101 39.5 394t42.5 388q8 56 52.5 84z" />
    <glyph glyph-name="approxequal" unicode="&#x2248;" 
d="M571 340.5q-27 -20.5 -66 -38t-81 -17.5q-28 0 -53.5 8.5t-58.5 24.5q-37 17 -62.5 25t-54.5 8q-42 0 -81 -17.5t-66 -38t-27 -22.5l9 60q0 2 27 22.5t66 38t81 17.5q28 0 53.5 -8.5t58.5 -24.5q38 -17 62.5 -25t53.5 -8q42 0 81 17.5t66 38t27 22.5l-8 -60
q0 -2 -27 -22.5zM542 138.5q-27 -20.5 -66 -38t-81 -17.5q-28 0 -53.5 8.5t-58.5 24.5q-38 17 -62.5 25t-53.5 8q-42 0 -81 -17.5t-66 -38t-27 -22.5l8 60q0 2 27 22.5t66 38t81 17.5q28 0 53.5 -8.5t58.5 -24.5q37 -17 62.5 -25t54.5 -8q42 0 81 17.5t66 38t27 22.5l-9 -60
q0 -2 -27 -22.5z" />
    <glyph glyph-name="notequal" unicode="&#x2260;" 
d="M567 386l-8 -58h-165l-123 -150h267l-9 -58h-306l-97 -120h-71l98 120h-124l9 58h163l124 150h-266l8 58h305l103 125h68l-102 -125h126z" />
    <glyph glyph-name="lessequal" unicode="&#x2264;" 
d="M593 521l-9 -62l-484 -159l440 -159l-9 -62l-484 177l12 88zM528 57l-8 -57h-510l8 57h510z" />
    <glyph glyph-name="greaterequal" unicode="&#x2265;" 
d="M27 79l9 62l484 159l-440 159l9 62l484 -177l-12 -88zM16 0l8 57h510l-8 -57h-510z" />
    <glyph glyph-name="lozenge" unicode="&#x25ca;" horiz-adv-x="489" 
d="M36 343l210 343h88l114 -343l-211 -343h-88zM200 47l186 296l-103 296l-185 -296z" />
    <glyph glyph-name="caron.alt" horiz-adv-x="218" 
d="M114.5 566.5q12.5 34.5 18.5 50.5h-24l9 69h65l-8 -58l-45 -112h-34q6 16 18.5 50.5z" />
    </font>
</defs>
</svg>
