<?xml version="1.0" standalone="no"?>
<!DOCTYPE svg PUBLIC "-//W3C//DTD SVG 1.1//EN" "http://www.w3.org/Graphics/SVG/1.1/DTD/svg11.dtd" >
<svg xmlns="http://www.w3.org/2000/svg" xmlns:xlink="http://www.w3.org/1999/xlink" version="1.1">
<metadata>
Created by FontForge 20201107 at Thu Feb 18 22:55:40 2016
 By 
Copyright (c) 2011-2016 by Omnibus-Type (www.omnibus-type.com omnibus.type@gmail.com)
</metadata>
<defs>
<font id="Chivo-Italic" horiz-adv-x="615" >
  <font-face 
    font-family="Chivo"
    font-weight="400"
    font-style="italic"
    font-stretch="normal"
    units-per-em="1000"
    panose-1="2 11 5 3 3 2 2 9 8 4"
    ascent="800"
    descent="-200"
    x-height="511"
    cap-height="686"
    bbox="-230 -250 1037 922"
    underline-thickness="50"
    underline-position="-100"
    slope="-8"
    unicode-range="U+0020-FB02"
  />
<missing-glyph horiz-adv-x="500" 
d="M500 0h-500v700h500v-700zM80 650l170 -255l170 255h-340zM50 95l170 255l-170 255v-510zM280 350l170 -255v510zM80 50h340l-170 255z" />
    <glyph glyph-name="fi" unicode="fi" horiz-adv-x="602" 
d="M336 723q24 -5 38 -14l-9 -69q-11 5 -30 9.5t-30 4.5q-27 0 -43.5 -12.5t-22.5 -51.5l-12 -79h120l-9 -75h-120l-71 -494q-9 -64 -47 -95t-96 -31q-22 0 -46 5t-38 14l8 69q11 -5 30.5 -9.5t30.5 -4.5q25 0 42 12.5t23 51.5l71 482h-59l10 75h58l13 91q9 65 46.5 95.5
t96.5 30.5q22 0 46 -5zM571 633h-98l12 87h98zM480 0h-94l72 511h94z" />
    <glyph glyph-name="fl" unicode="fl" horiz-adv-x="608" 
d="M336 723q24 -5 38 -14l-9 -69q-11 5 -30 9.5t-30 4.5q-27 0 -43.5 -12.5t-22.5 -51.5l-12 -79h120l-9 -75h-120l-71 -494q-9 -64 -47 -95t-96 -31q-22 0 -46 5t-38 14l8 69q11 -5 30.5 -9.5t30.5 -4.5q25 0 42 12.5t23 51.5l71 482h-59l10 75h58l13 91q9 65 46.5 95.5
t96.5 30.5q22 0 46 -5zM480 0h-94l101 720h94z" />
    <glyph glyph-name=".notdef" horiz-adv-x="500" 
d="M500 0h-500v700h500v-700zM80 650l170 -255l170 255h-340zM50 95l170 255l-170 255v-510zM280 350l170 -255v510zM80 50h340l-170 255z" />
    <glyph glyph-name=".null" horiz-adv-x="0" 
 />
    <glyph glyph-name="nonmarkingreturn" horiz-adv-x="333" 
 />
    <glyph glyph-name="space" unicode=" " horiz-adv-x="244" 
 />
    <glyph glyph-name="exclam" unicode="!" horiz-adv-x="269" 
d="M151 174h-66l18 188q5 54 14.5 152.5t15.5 171.5h115q-16 -55 -97 -512zM144 0h-101l16 111h101z" />
    <glyph glyph-name="quotedbl" unicode="&#x22;" horiz-adv-x="363" 
d="M180 539q-12 -40 -22 -71q-4 -13 -9 -28t-10 -33h-41v132l21 147h82zM334 539q-26 -79 -42 -132h-40v132l21 147h82z" />
    <glyph glyph-name="numbersign" unicode="#" horiz-adv-x="644" 
d="M536 486h105l-11 -76h-122l-56 -155h116l-10 -76h-133l-65 -179h-76l65 179h-150l-65 -179h-76l65 179h-109l10 76h126l56 155h-121l11 76h138l76 210h76l-76 -210h150l76 210h76zM282 410l-56 -155h150l56 155h-150z" />
    <glyph glyph-name="dollar" unicode="$" horiz-adv-x="546" 
d="M349 671q81 -4 130 -40.5t49 -106.5q0 -18 -3 -41h-95q0 7 1.5 13.5t1.5 12.5q0 37 -31.5 57t-84.5 20q-65 0 -106 -23t-41 -69q0 -26 18.5 -43t46.5 -27.5t76 -22.5q63 -17 101 -32.5t65.5 -46t27.5 -79.5q0 -117 -72.5 -170.5t-176.5 -53.5v-85h-73l23 86
q-86 4 -137.5 42.5t-51.5 114.5q0 31 6 50h95q-3 -3 -4 -15t-1 -20q0 -44 34.5 -65.5t93.5 -21.5q79 0 123 28t44 81q0 30 -19.5 49t-48 29.5t-78.5 23.5q-61 16 -98.5 30.5t-64 44.5t-26.5 80q0 68 32.5 113t84 66t108.5 21v89h75z" />
    <glyph glyph-name="percent" unicode="%" horiz-adv-x="700" 
d="M136 0h-70l515 686h68zM291 656q28 -29 28 -74q0 -2 -1.5 -19t-14.5 -106q-8 -54 -43 -87.5t-95 -33.5h-7q-49 0 -77.5 28.5t-28.5 72.5q-1 5 3 25q1 9 4.5 31.5t9.5 70.5q7 53 42.5 87t95.5 34h7q49 0 77 -29zM156 613.5q-18 -16.5 -22 -42.5q-18 -120 -18 -130
q0 -22 13.5 -36t39.5 -14q28 0 46.5 16.5t22.5 42.5q10 74 14 99t4 31q0 22 -14 36t-39 14q-29 0 -47 -16.5zM633 319q28 -29 28 -74q0 -2 -1.5 -19t-14.5 -106q-8 -54 -43 -87.5t-95 -33.5h-7q-49 0 -77.5 28.5t-28.5 72.5q-1 5 3 25q1 9 4.5 31.5t9.5 70.5q7 53 42.5 87
t95.5 34h7q49 0 77 -29zM498 276.5q-18 -16.5 -22 -42.5q-18 -120 -18 -130q0 -22 13.5 -36t39.5 -14q28 0 46.5 16.5t22.5 42.5q10 74 14 99t4 31q0 22 -14 36t-39 14q-29 0 -47 -16.5z" />
    <glyph glyph-name="ampersand" unicode="&#x26;" horiz-adv-x="661" 
d="M417 689l-12 -91q-31 9 -55 9q-67 0 -108.5 -27t-41.5 -80q0 -46 33 -75.5t88 -29.5h123l48 143h68l-20 -143h108l-12 -89h-108l-43 -306h-225q-96 0 -156.5 41.5t-60.5 121.5q0 77 41 124t109 67l4 2q-45 22 -69.5 55t-24.5 83q0 96 69.5 149t183.5 53q28 0 61 -7z
M316 306q-81 0 -127.5 -31.5t-46.5 -92.5q0 -48 39.5 -70.5t104.5 -22.5h113l31 217h-114z" />
    <glyph glyph-name="quotesingle" unicode="'" horiz-adv-x="209" 
d="M180 539q-4 -14 -9 -29.5t-11 -32.5q-12 -42 -22 -70h-40v132l21 147h82z" />
    <glyph glyph-name="parenleft" unicode="(" horiz-adv-x="289" 
d="M174 438.5q-53 -132.5 -53 -268.5q0 -87 20.5 -171t55.5 -156h-52q-52 72 -79 157t-27 178q0 280 225 508h52q-89 -115 -142 -247.5z" />
    <glyph glyph-name="parenright" unicode=")" horiz-adv-x="289" 
d="M216 529.5q27 -85.5 27 -178.5q0 -139 -59 -269.5t-166 -238.5h-51q87 113 140 245t53 267q0 87 -20 173t-54 158h51q52 -71 79 -156.5z" />
    <glyph glyph-name="asterisk" unicode="*" horiz-adv-x="469" 
d="M291 519l167 65l12 -78l-171 -38l92 -125l-71 -49l-68 144l-107 -142l-57 48l129 125l-158 40l36 77l146 -66l10 166h79z" />
    <glyph glyph-name="plus" unicode="+" 
d="M349 297h215l-11 -84h-215l-30 -213h-83l30 213h-214l11 84h214l30 214h83z" />
    <glyph glyph-name="comma" unicode="," horiz-adv-x="237" 
d="M132 26l-56 -150h-52l44 124h-41l16 111h101z" />
    <glyph glyph-name="hyphen" unicode="-" horiz-adv-x="390" 
d="M311 221h-251l12 98h252z" />
    <glyph glyph-name="period" unicode="." horiz-adv-x="238" 
d="M130 0h-101l15 111h101z" />
    <glyph glyph-name="slash" unicode="/" horiz-adv-x="489" 
d="M36 -171h-81l490 857h80z" />
    <glyph glyph-name="zero" unicode="0" 
d="M473.5 671q45.5 -25 71 -70t25.5 -102v-15q0 -14 -9 -71l-28 -192q-10 -68 -44.5 -120t-90.5 -81.5t-127 -29.5h-13q-58 0 -103.5 24.5t-71 68.5t-25.5 101q0 25 37 280q10 68 45 120.5t91 82t126 29.5h13q58 0 103.5 -25zM245.5 569.5q-41.5 -37.5 -50.5 -97.5l-15 -103
q-5 -39 -14 -101.5t-9 -73.5q0 -52 32 -83.5t88 -31.5q66 0 107 37.5t50 97.5q12 84 16 108q6 41 14 100t8 69q0 51 -33 83.5t-87 32.5q-65 0 -106.5 -37.5z" />
    <glyph glyph-name="one" unicode="1" 
d="M349 89h180l-13 -89h-458l13 89h180l65 466h-182l9 64q119 12 252 67h38z" />
    <glyph glyph-name="two" unicode="2" 
d="M480 670q47 -26 68.5 -66t21.5 -82q0 -68 -34 -126.5t-120 -116.5l-211 -143q-18 -12 -33 -25.5t-16 -21.5h358l-12 -89h-471l3 24q8 63 44.5 108t73.5 69l220 150q99 68 99 156q0 39 -27 69.5t-93 30.5q-43 0 -79 -20.5t-57.5 -57t-21.5 -80.5h-98q0 63 33 119.5t94 92
t140 35.5q71 0 118 -26z" />
    <glyph glyph-name="three" unicode="3" 
d="M508.5 652.5q55.5 -43.5 55.5 -116.5q0 -67 -36 -110t-97 -70l1 -3q48 -16 75 -50.5t27 -87.5q0 -65 -35.5 -116.5t-97 -80t-135.5 -28.5h-12q-103 0 -157.5 45.5t-54.5 124.5q0 15 4 42h98q-3 -19 -3 -30q0 -46 32.5 -69.5t94.5 -23.5q76 0 122.5 33.5t46.5 99.5
q0 49 -39 70.5t-101 21.5h-75l13 90h77q62 0 107 33t45 92q0 45 -33.5 66.5t-86.5 21.5q-56 0 -96 -29.5t-48 -85.5h-98q12 97 82 150.5t172 53.5h9q88 0 143.5 -43.5z" />
    <glyph glyph-name="four" unicode="4" 
d="M335 521.5q-55 -89.5 -109 -160t-87 -103.5h230l28 199q26 39 42 69t31 68h44l-47 -336h87l-13 -89h-87l-23 -169h-98l23 169h-323l13 90q163 205 274 437h105q-35 -85 -90 -174.5z" />
    <glyph glyph-name="five" unicode="5" 
d="M551 597h-304l-43 -201q71 51 145 51q94 0 141 -51t47 -131q0 -81 -32 -143t-93.5 -97t-146.5 -35q-64 0 -111 25.5t-72 69.5t-25 99q0 8 2 30h98q-1 -3 -1 -8v-8q0 -54 33.5 -86.5t87.5 -32.5q71 0 116 43.5t45 123.5q0 51 -31.5 84t-85.5 33q-42 0 -78 -18t-61 -51
l-86 13l81 379h386z" />
    <glyph glyph-name="six" unicode="6" 
d="M512.5 646q55.5 -50 55.5 -136v-18q0 -5 -2 -19h-98q1 4 1 12v11q0 52 -30.5 81.5t-84.5 29.5q-35 0 -68.5 -18t-56 -48.5t-27.5 -66.5l-15 -108q33 31 75 48.5t89 17.5q55 0 98.5 -22.5t68.5 -63t25 -92.5q0 -81 -35 -140.5t-96 -91.5t-139 -32q-60 0 -107 23.5
t-73.5 67.5t-26.5 103v7q0 20 37 274q9 63 47.5 116t95.5 84t120 31q91 0 146.5 -50zM245 323.5q-37 -19.5 -59.5 -54t-22.5 -78.5q0 -51 34 -81.5t88 -30.5q72 0 115 42t43 111q0 51 -32.5 81t-86.5 30q-42 0 -79 -19.5z" />
    <glyph glyph-name="seven" unicode="7" 
d="M602 633q-128 -131 -225 -281t-119 -301l-3 -27l-3 -24h-114q37 276 334 597h-357l13 89h482z" />
    <glyph glyph-name="eight" unicode="8" 
d="M504 654q52 -42 52 -118q0 -71 -30 -111.5t-86 -70.5l-1 -4q46 -23 70.5 -54t24.5 -80q0 -69 -33 -120t-94 -78.5t-142 -27.5q-99 0 -157 42t-58 121q0 140 141 197l1 4q-37 23 -55.5 50t-18.5 71q0 68 33 118t89 76.5t124 26.5q88 0 140 -42zM287 593
q-31 -14 -50.5 -41.5t-19.5 -66.5q0 -40 28 -65t77 -25q58 0 96.5 35t38.5 86q0 40 -27.5 65.5t-77.5 25.5q-34 0 -65 -14zM233.5 292q-36.5 -14 -60 -44t-23.5 -73q0 -46 35.5 -71t91.5 -25q67 0 113 34t46 97q0 46 -35.5 71t-91.5 25q-39 0 -75.5 -14z" />
    <glyph glyph-name="nine" unicode="9" 
d="M462 672.5q47 -23.5 73.5 -67.5t26.5 -103q0 -14 -22 -174q-4 -26 -7.5 -53t-7.5 -54q-10 -66 -45 -118.5t-91 -82.5t-127 -30q-92 0 -147.5 49.5t-55.5 136.5q0 18 3 37h98q-2 -16 -2 -24q0 -52 31 -81t85 -29q61 0 102.5 38.5t49.5 94.5l15 108q-33 -31 -75 -48.5
t-89 -17.5q-55 0 -98.5 23t-68.5 64.5t-25 94.5q0 80 36 138.5t98 90t136 31.5q60 0 107 -23.5zM264.5 588.5q-36.5 -18.5 -58.5 -53.5t-22 -80q0 -51 34 -81.5t89 -30.5q41 0 77 19.5t58 54t22 78.5q0 51 -33.5 81.5t-87.5 30.5q-42 0 -78.5 -18.5z" />
    <glyph glyph-name="colon" unicode=":" horiz-adv-x="238" 
d="M185 399h-101l15 112h101zM129 0h-101l15 111h101z" />
    <glyph glyph-name="semicolon" unicode=";" horiz-adv-x="238" 
d="M184 399h-101l16 112h101zM132 26l-56 -150h-52l44 124h-41l16 111h101z" />
    <glyph glyph-name="less" unicode="&#x3c;" 
d="M570 414l-450 -160l405 -160l-13 -90l-481 196l15 107l537 197z" />
    <glyph glyph-name="equal" unicode="=" 
d="M563 318h-504l12 84h504zM534 106h-504l11 83h504z" />
    <glyph glyph-name="greater" unicode="&#x3e;" 
d="M573 307l-15 -107l-537 -196l13 90l452 160l-29 11q-211 82 -378 149l13 90z" />
    <glyph glyph-name="question" unicode="?" horiz-adv-x="502" 
d="M420 668.5q41 -27.5 57 -66.5t16 -78q0 -49 -17 -85t-41 -60t-61 -52q-37 -29 -54.5 -48.5t-20.5 -44.5l-6 -49h-100l9 64q5 37 28.5 63t66.5 58q48 36 72.5 65.5t24.5 74.5q0 38 -25 67.5t-79 29.5q-72 0 -105.5 -42.5t-33.5 -106.5h-98q0 71 30.5 125t87 83.5
t132.5 29.5h6q70 0 111 -27.5zM269 0h-104l15 111h104z" />
    <glyph glyph-name="at" unicode="@" horiz-adv-x="887" 
d="M772 623.5q94 -73.5 94 -226.5q0 -84 -23 -170t-76 -145.5t-136 -59.5q-40 0 -64 19t-24 68l-6 -3q-66 -84 -176 -84q-65 0 -102.5 26.5t-37.5 97.5q0 73 44 111t118 50.5t184 12.5q8 56 8 64q0 29 -21 48t-78 19q-65 0 -88.5 -25t-29.5 -51l-2 -11h-86q0 46 28 81.5
t77.5 55.5t111.5 20h9q86 0 128 -31t42 -90q0 -14 -8 -70.5t-11 -74.5l-9 -58l-7 -49l-3 -27q0 -30 33 -30q52 0 84.5 52t46.5 121t14 124q0 129 -78.5 191.5t-218.5 62.5q-122 0 -217.5 -55t-150 -162t-54.5 -257q0 -135 69.5 -200.5t213.5 -65.5q37 0 90 9.5t80 22.5
l-8 -60q-32 -11 -83.5 -19t-85.5 -8q-161 0 -248.5 78t-87.5 238q0 148 53.5 269t163.5 193t273 72q161 0 255 -73.5zM373.5 232q-63.5 -19 -63.5 -71q0 -38 21.5 -53.5t69.5 -15.5q55 0 99 38.5t55 102.5l3 18q-121 0 -184.5 -19z" />
    <glyph glyph-name="A" unicode="A" horiz-adv-x="650" 
d="M607 0h-106l-37 149h-328l-78 -149h-94l364 686h108zM357 568l-173 -330h259l-80 330h-6z" />
    <glyph glyph-name="B" unicode="B" horiz-adv-x="652" 
d="M561.5 646.5q47.5 -39.5 47.5 -106.5q0 -79 -43 -123t-100 -59l-1 -5q44 -8 79 -40.5t35 -98.5q0 -64 -29.5 -113t-79.5 -75t-109 -26h-310l97 686h292q74 0 121.5 -39.5zM233 597l-28 -203h186q30 0 57 16t43.5 42.5t16.5 56.5q0 46 -24 67t-65 21h-186zM192 305
l-30 -216h196q52 0 88 32t36 91q0 40 -26 66.5t-68 26.5h-196z" />
    <glyph glyph-name="C" unicode="C" horiz-adv-x="662" 
d="M567.5 640q63.5 -56 63.5 -163q0 -29 -4 -54h-98q3 23 3 43q0 71 -38.5 106t-105.5 35q-86 0 -142.5 -53.5t-72.5 -165.5q-17 -116 -17 -147q0 -83 41 -122.5t116 -39.5q78 0 131 45.5t66 136.5h94q-20 -136 -100 -203.5t-203 -67.5q-112 0 -178 61.5t-66 180.5
q0 36 18 156q22 154 106.5 231t218.5 77q104 0 167.5 -56z" />
    <glyph glyph-name="D" unicode="D" horiz-adv-x="677" 
d="M563.5 623.5q67.5 -62.5 67.5 -181.5q0 -23 -13 -134q-18 -153 -104 -230.5t-225 -77.5h-238l97 686h238q110 0 177.5 -62.5zM233 597l-71 -508h140q85 0 143.5 54t73.5 165q13 105 13 124q0 84 -42.5 124.5t-116.5 40.5h-140z" />
    <glyph glyph-name="E" unicode="E" horiz-adv-x="592" 
d="M572 597h-339l-28 -202h307l-13 -89h-307l-30 -217h345v-89h-456l97 686h450z" />
    <glyph glyph-name="F" unicode="F" horiz-adv-x="552" 
d="M554 597h-321l-29 -209h280l-13 -89h-280l-42 -299h-98l97 686h432z" />
    <glyph glyph-name="G" unicode="G" horiz-adv-x="675" 
d="M566.5 642.5q64.5 -53.5 64.5 -153.5q0 -21 -3 -44h-98q2 22 2 33q0 65 -39 97t-105 32q-86 0 -142.5 -53.5t-72.5 -165.5q-17 -116 -17 -147q0 -83 41 -122.5t116 -39.5q87 0 132.5 43t60.5 139l2 13h-194l12 88h290l-33 -234q-12 -68 -12 -128h-58q-7 18 -8 82
q-39 -45 -91 -68.5t-113 -23.5q-112 0 -178 61.5t-66 180.5q0 36 18 156q22 154 105.5 231t219.5 77q102 0 166.5 -53.5z" />
    <glyph glyph-name="H" unicode="H" horiz-adv-x="693" 
d="M560 0h-98l43 306h-313l-43 -306h-98l97 686h98l-41 -291h313l41 291h98z" />
    <glyph glyph-name="I" unicode="I" horiz-adv-x="365" 
d="M354 597h-80l-71 -508h80l-13 -89h-258l13 89h80l71 508h-80l13 89h258z" />
    <glyph glyph-name="J" unicode="J" horiz-adv-x="525" 
d="M422 187q-14 -98 -73.5 -147.5t-156.5 -49.5h-9q-46 0 -85.5 18t-63.5 54t-24 87v16t6 43h97q-5 -23 -5 -42q0 -39 26 -63t65 -24q50 0 83.5 27.5t40.5 74.5l71 505h98z" />
    <glyph glyph-name="K" unicode="K" horiz-adv-x="621" 
d="M362 383l206 -383h-114l-164 308l-112 -102l-29 -206h-98l97 686h98l-50 -357l348 357h113z" />
    <glyph glyph-name="L" unicode="L" horiz-adv-x="532" 
d="M162 89h315v-89h-426l97 686h98z" />
    <glyph glyph-name="M" unicode="M" horiz-adv-x="938" 
d="M805 0h-98l81 571h-6l-318 -571h-83l-155 571h-5l-81 -571h-89l97 686h154l145 -540h4l298 540h153z" />
    <glyph glyph-name="N" unicode="N" horiz-adv-x="694" 
d="M561 0h-83l-264 502l-3 -1l-71 -501h-89l97 686h86l262 -496l3 1l70 495h89z" />
    <glyph glyph-name="O" unicode="O" horiz-adv-x="690" 
d="M579.5 633q67.5 -63 67.5 -183q0 -33 -17 -152q-21 -152 -108 -230t-219 -78q-110 0 -178 63t-68 182q-1 14 1 31t6 44l11 78q20 151 108 229.5t219 78.5q110 0 177.5 -63zM246 553.5q-57 -53.5 -73 -165.5q-17 -125 -17 -144q0 -84 42 -124.5t117 -40.5q85 0 142.5 53.5
t74.5 165.5q17 115 17 144q0 84 -42.5 124.5t-116.5 40.5q-87 0 -144 -53.5z" />
    <glyph glyph-name="P" unicode="P" horiz-adv-x="626" 
d="M572.5 639.5q50.5 -46.5 50.5 -122.5q0 -69 -29.5 -121t-83.5 -81t-123 -29h-198l-40 -286h-98l97 686h296q78 0 128.5 -46.5zM233 597l-31 -222h189q34 0 64.5 17.5t49.5 46t19 61.5q0 42 -28.5 69.5t-73.5 27.5h-189z" />
    <glyph glyph-name="Q" unicode="Q" horiz-adv-x="690" 
d="M579.5 633q67.5 -63 67.5 -183q0 -33 -17 -152q-20 -135 -90.5 -212t-179.5 -92q3 -26 25 -45t65 -19q36 0 108 24l13 4l-10 -70q-24 -14 -59 -23.5t-78 -9.5q-68 0 -114.5 35t-46.5 102q-95 10 -150.5 72t-55.5 171q-1 14 1 31t6 44l11 78q20 151 108 229.5t219 78.5
q110 0 177.5 -63zM246 553.5q-57 -53.5 -73 -165.5q-17 -125 -17 -144q0 -84 42 -124.5t117 -40.5q85 0 142.5 53.5t74.5 165.5q17 115 17 144q0 84 -42.5 124.5t-116.5 40.5q-87 0 -144 -53.5z" />
    <glyph glyph-name="R" unicode="R" horiz-adv-x="670" 
d="M572.5 649.5q52.5 -36.5 52.5 -106.5q0 -42 -17.5 -82.5t-51 -69.5t-79.5 -37v-5q30 -13 58 -46t28 -101q0 -17 -4 -55q-4 -32 -4 -43q0 -34 9.5 -50t28.5 -23l-4 -28q-22 -8 -53 -8q-38 0 -60 19t-22 71q0 17 4 53q3 23 3 35q0 68 -28.5 98.5t-67.5 30.5h-174l-42 -302
h-98l96 686h292q81 0 133.5 -36.5zM233 597l-29 -206h195q30 0 59 16t47 43.5t18 60.5q0 39 -25.5 62.5t-69.5 23.5h-195z" />
    <glyph glyph-name="S" unicode="S" horiz-adv-x="629" 
d="M528.5 656.5q59.5 -39.5 59.5 -120.5q0 -21 -4 -44h-98q4 20 4 28q0 42 -35 64.5t-94 22.5q-72 0 -118 -26t-46 -77q0 -30 20 -49.5t50 -30.5t82 -25q69 -18 111.5 -36t73 -54.5t30.5 -97.5q0 -116 -78.5 -168.5t-214.5 -52.5q-106 0 -170.5 41t-64.5 129q0 14 2 30t5 25
h98q-3 -3 -4.5 -17t-1.5 -23q0 -48 38.5 -72t104.5 -24q86 0 135.5 31.5t49.5 90.5q0 32 -20 52t-49.5 31t-83.5 26q-68 18 -110.5 36t-72.5 55t-30 98q0 97 76 147t198 50q98 0 157.5 -39.5z" />
    <glyph glyph-name="T" unicode="T" horiz-adv-x="575" 
d="M594 597h-215l-84 -597h-98l84 597h-214l13 89h527z" />
    <glyph glyph-name="U" unicode="U" horiz-adv-x="682" 
d="M585 219q-15 -107 -87.5 -168t-192.5 -61h-13q-102 0 -160 51t-58 139q0 11 8 69t12 85l48 352h98l-44 -314l-14 -100l-6 -44q-3 -19 -3 -28q0 -54 36.5 -87.5t101.5 -33.5q72 0 119.5 39t56.5 103l65 465h98z" />
    <glyph glyph-name="V" unicode="V" horiz-adv-x="602" 
d="M310 0h-105l-146 686h104l115 -553h6l272 553h95z" />
    <glyph glyph-name="W" unicode="W" horiz-adv-x="914" 
d="M657 0h-100l-70 496h-7l-215 -496h-100l-98 686h104l72 -517h6l219 517h95l72 -517h6l219 517h95z" />
    <glyph glyph-name="X" unicode="X" horiz-adv-x="628" 
d="M630 658q-17 -19 -102 -122q-28 -33 -64.5 -77t-82.5 -98l198 -361h-118l-151 276q-58 -67 -138 -163q-64 -76 -96 -113h-108l299 355l-179 330h117l133 -245l126 149q23 28 39 46.5t25 29.5l17 20h109z" />
    <glyph glyph-name="Y" unicode="Y" horiz-adv-x="570" 
d="M329 265l-38 -265h-98l38 265l-182 421h111l138 -319h4l226 319h101z" />
    <glyph glyph-name="Z" unicode="Z" horiz-adv-x="595" 
d="M597 648l-444 -559h374l-13 -89h-523l6 38l443 559h-341l13 89h491z" />
    <glyph glyph-name="bracketleft" unicode="[" horiz-adv-x="294" 
d="M302 631h-88l-103 -737h88l-8 -55h-169l119 847h169z" />
    <glyph glyph-name="backslash" unicode="\" horiz-adv-x="593" 
d="M515 -171h-81l-366 857h79z" />
    <glyph glyph-name="bracketright" unicode="]" horiz-adv-x="294" 
d="M145 -161h-169l8 55h88l103 737h-88l8 55h169z" />
    <glyph glyph-name="asciicircum" unicode="^" horiz-adv-x="596" 
d="M509 0h-84l-79 315q-10 44 -26 106q-38 -70 -112 -210l-112 -211h-84l268 511h103z" />
    <glyph glyph-name="underscore" unicode="_" horiz-adv-x="687" 
d="M533 -124h-498l8 60h499z" />
    <glyph glyph-name="grave" unicode="`" horiz-adv-x="333" 
d="M241 575h-70l-95 142l2 3h89z" />
    <glyph glyph-name="a" unicode="a" horiz-adv-x="607" 
d="M371 500.5q37 -20.5 56 -54.5h7l31 65h65q-18 -114 -35.5 -245.5t-22.5 -173.5q0 -13 7 -20t17 -7q11 0 24.5 4.5t22.5 9.5l-9 -69q-13 -8 -33 -14t-44 -6q-76 0 -76 75q-69 -75 -165 -75q-79 0 -126.5 50.5t-47.5 149.5q0 104 32.5 179t87.5 113.5t122 38.5
q50 0 87 -20.5zM172 368.5q-37 -77.5 -37 -175.5q0 -69 28 -98.5t81 -29.5q80 0 121 71t41 182q0 68 -28.5 98t-80.5 30q-88 0 -125 -77.5z" />
    <glyph glyph-name="b" unicode="b" horiz-adv-x="582" 
d="M198 446q28 33 71 54t94 21q75 0 121.5 -51t46.5 -145q0 -78 -25.5 -155t-82 -128.5t-142.5 -51.5q-114 0 -159 91l-44 -81h-36l101 720h94zM203.5 372q-38.5 -74 -38.5 -179q0 -69 28 -98.5t81 -29.5q76 0 119 65t43 188q0 68 -28.5 98t-80.5 30q-85 0 -123.5 -74z" />
    <glyph glyph-name="c" unicode="c" horiz-adv-x="546" 
d="M451.5 474q50.5 -47 50.5 -128q0 -16 -3 -36h-93q2 18 2 27q0 49 -27 79t-80 30q-90 0 -128 -75.5t-38 -178.5q0 -64 30.5 -95.5t86.5 -31.5q61 0 97 36.5t45 98.5h90q-14 -101 -77 -155.5t-164 -54.5h-8q-88 0 -140.5 53t-52.5 148q0 91 29 166t89 119.5t149 44.5h8
q84 0 134.5 -47z" />
    <glyph glyph-name="d" unicode="d" horiz-adv-x="612" 
d="M539 576q-8 -56 -37.5 -260t-29.5 -224q0 -13 7 -20t17 -7q11 0 24.5 4.5t22.5 9.5l-9 -69q-13 -8 -33 -14t-44 -6q-76 0 -76 75q-69 -75 -165 -75q-79 0 -126.5 50.5t-47.5 149.5q0 104 32.5 179t87.5 113.5t122 38.5q50 0 87 -20.5t56 -54.5l39 274h94zM172 368.5
q-37 -77.5 -37 -175.5q0 -69 28 -98.5t81 -29.5q80 0 121 71t41 182q0 68 -28.5 98t-80.5 30q-88 0 -125 -77.5z" />
    <glyph glyph-name="e" unicode="e" horiz-adv-x="556" 
d="M456.5 474q50.5 -47 50.5 -130v-11q0 -21 -13 -99h-357q-2 -22 -2 -32q0 -63 29 -100t92 -37q73 0 104 40t39 85h89q-13 -94 -76.5 -147t-165.5 -53h-4q-92 0 -146.5 53t-54.5 150q0 89 30.5 164t92 119.5t150.5 44.5h7q85 0 135.5 -47zM207.5 411q-40.5 -35 -57.5 -104
h262q3 20 3 36q0 50 -30 76.5t-79 26.5q-58 0 -98.5 -35z" />
    <glyph glyph-name="f" unicode="f" horiz-adv-x="340" 
d="M336 723q24 -5 38 -14l-9 -69q-11 5 -30 9.5t-30 4.5q-27 0 -43.5 -12.5t-22.5 -51.5l-12 -79h120l-9 -75h-120l-71 -494q-9 -64 -47 -95t-96 -31q-22 0 -46 5t-38 14l8 69q11 -5 30.5 -9.5t30.5 -4.5q25 0 42 12.5t23 51.5l71 482h-59l10 75h58l13 91q9 65 46.5 95.5
t96.5 30.5q22 0 46 -5z" />
    <glyph glyph-name="g" unicode="g" horiz-adv-x="583" 
d="M451 430l45 81h36l-67 -477q-13 -99 -75 -159.5t-177 -60.5q-94 0 -143 47t-49 120h93q0 -42 29 -67t80 -25q59 0 98 36t47 90l11 80q-28 -34 -70 -54.5t-94 -20.5q-76 0 -123.5 49t-47.5 139q0 83 28 154.5t84 115t136 43.5q116 0 159 -91zM185.5 393
q-45.5 -53 -45.5 -176q0 -122 110 -122q55 0 91 34t52 86.5t16 110.5q0 65 -28 92.5t-81 27.5q-69 0 -114.5 -53z" />
    <glyph glyph-name="h" unicode="h" horiz-adv-x="593" 
d="M199 447q73 74 168 74q72 0 115 -35t43 -106q0 -21 -26 -203l-25 -177h-94l24 167q21 151 24 189q0 46 -24.5 68t-68.5 22q-35 0 -69 -19t-58 -51.5t-29 -71.5l-43 -304h-94l101 720h94z" />
    <glyph glyph-name="i" unicode="i" horiz-adv-x="260" 
d="M227 633h-98l12 87h98zM136 0h-94l72 511h94z" />
    <glyph glyph-name="j" unicode="j" horiz-adv-x="260" 
d="M227 633h-98l12 87h98zM134 -15q-13 -91 -46.5 -131t-101.5 -40q-22 0 -45 5t-37 14l9 70q12 -6 29.5 -10.5t28.5 -4.5q24 0 42 14t23 54l78 555h94z" />
    <glyph glyph-name="k" unicode="k" horiz-adv-x="534" 
d="M168 226l268 285h103l-232 -248l173 -263h-114l-126 190l-89 -80l-15 -110h-94l101 720h94z" />
    <glyph glyph-name="l" unicode="l" horiz-adv-x="268" 
d="M140 0h-94l101 720h94z" />
    <glyph glyph-name="m" unicode="m" horiz-adv-x="867" 
d="M760.5 487q38.5 -34 38.5 -103q0 -25 -26 -207l-25 -177h-94l24 170q0 -4 13 97q11 88 11 94q0 48 -19 66.5t-58 18.5q-32 0 -62 -19t-51.5 -51.5t-26.5 -71.5l-43 -304h-94l24 171q23 170 25 190q0 85 -78 85q-32 0 -62 -19t-51.5 -51.5t-26.5 -71.5l-43 -304h-94
l72 511h70v-75q72 85 167 85q107 0 134 -85q41 48 83 66.5t89 18.5q65 0 103.5 -34z" />
    <glyph glyph-name="n" unicode="n" horiz-adv-x="593" 
d="M482 486q43 -35 43 -106q0 -22 -26 -202l-25 -178h-94l24 167l12 89q12 86 12 100q0 46 -24.5 68t-68.5 22q-35 0 -69 -19t-58 -51.5t-29 -71.5l-43 -304h-94l72 511h70v-75q78 85 183 85q72 0 115 -35z" />
    <glyph glyph-name="o" unicode="o" horiz-adv-x="576" 
d="M467.5 470.5q56.5 -50.5 56.5 -146.5q0 -90 -27 -165t-89.5 -122t-162.5 -47q-91 0 -147.5 50.5t-56.5 146.5q0 89 27 164.5t89.5 122.5t162.5 47q91 0 147.5 -50.5zM176.5 372.5q-40.5 -73.5 -40.5 -172.5q0 -68 33 -101.5t87 -33.5q61 0 99.5 36.5t55.5 92t17 116.5
q0 69 -32.5 102.5t-86.5 33.5q-92 0 -132.5 -73.5z" />
    <glyph glyph-name="p" unicode="p" horiz-adv-x="583" 
d="M483 470.5q48 -50.5 48 -150.5q0 -77 -24.5 -153t-79 -126.5t-138.5 -50.5q-52 0 -88 20t-55 55l-35 -246h-94l97 692h74v-70q67 80 169 80q78 0 126 -50.5zM213 387q-46 -59 -46 -194q0 -69 28 -98.5t81 -29.5q90 0 126 75.5t36 176.5q0 69 -28.5 99t-80.5 30
q-70 0 -116 -59z" />
    <glyph glyph-name="q" unicode="q" horiz-adv-x="582" 
d="M450 430l44 81h36l-97 -691h-94l35 245q-28 -33 -71 -54t-94 -21q-75 0 -122 51t-47 144q0 79 25.5 156t82 128.5t143.5 51.5q113 0 159 -91zM180 381.5q-44 -64.5 -44 -188.5q0 -69 28 -98.5t81 -29.5q87 0 124.5 76t37.5 176q0 69 -28.5 99t-80.5 30q-74 0 -118 -64.5z
" />
    <glyph glyph-name="r" unicode="r" horiz-adv-x="489" 
d="M442.5 484.5q33.5 -36.5 33.5 -95.5q0 -15 -4 -38.5t-7 -27.5h-83q4 27 4 35q0 33 -21.5 60.5t-63.5 27.5q-53 0 -83.5 -42t-38.5 -99l-43 -305h-94l72 511h70v-76q4 10 22 30t54 38t88 18q61 0 94.5 -36.5z" />
    <glyph glyph-name="s" unicode="s" horiz-adv-x="536" 
d="M439.5 486q47.5 -35 47.5 -88q0 -22 -4 -34h-93q0 5 1 10t1 9q0 28 -24.5 45.5t-79.5 17.5q-68 0 -95 -23.5t-27 -51.5q0 -29 29 -42t92 -26q58 -12 94 -24t61.5 -38.5t25.5 -72.5q0 -94 -66.5 -136t-175.5 -42h-15q-93 0 -140.5 37.5t-47.5 93.5q0 17 2.5 27t2.5 12h93
l-2 -16v-7q0 -36 33 -54t87 -18q57 0 94.5 21.5t37.5 60.5q0 34 -31 48.5t-96 27.5q-57 12 -91.5 23.5t-59 37.5t-24.5 71q0 78 61 122t172 44h9q81 0 128.5 -35z" />
    <glyph glyph-name="t" unicode="t" horiz-adv-x="344" 
d="M223 511h119l-11 -75h-119q-16 -101 -23 -153l-8 -58q-14 -98 -14 -113q0 -29 14 -39t36 -10q11 0 31 5t33 10l-10 -70q-17 -8 -41.5 -13t-46.5 -5q-57 0 -83.5 24.5t-26.5 78.5q0 25 14 128l8 60q6 49 23 155h-56l11 75h55l22 163h103z" />
    <glyph glyph-name="u" unicode="u" horiz-adv-x="617" 
d="M511 304q-30 -209 -29 -212q0 -13 7 -20t17 -7q11 0 24.5 4t22.5 10l-9 -69q-13 -8 -33 -14t-44 -6q-76 0 -76 74v10q-31 -35 -77 -59.5t-97 -24.5q-73 0 -116 35t-43 106q0 39 51 380h94l-24 -165q-25 -166 -24 -191q0 -90 93 -90q35 0 68.5 19t57.5 51.5t30 71.5
l43 304h94z" />
    <glyph glyph-name="v" unicode="v" horiz-adv-x="512" 
d="M265 0h-100l-122 511h99l91 -391h4l201 391h92z" />
    <glyph glyph-name="w" unicode="w" horiz-adv-x="809" 
d="M580 0h-98l-68 357h-4l-166 -357h-98l-96 511h96l67 -374h4l173 374h92l67 -374h4l173 374h92z" />
    <glyph glyph-name="x" unicode="x" horiz-adv-x="517" 
d="M308 265l151 -265h-112l-107 187l-161 -187h-102l223 259l-142 252h111l99 -174l150 174h103z" />
    <glyph glyph-name="y" unicode="y" horiz-adv-x="510" 
d="M269 20q-52 -98 -102.5 -152t-114.5 -54q-41 0 -71 14l10 77q11 -6 27 -10t31 -4q26 0 58 24t62 90l-127 506h99l94 -377h4l198 377h92z" />
    <glyph glyph-name="z" unicode="z" horiz-adv-x="463" 
d="M441 474l-306 -399h258l-10 -75h-387l5 38l305 398h-234l10 75h364z" />
    <glyph glyph-name="braceleft" unicode="{" horiz-adv-x="314" 
d="M323 636q-33 0 -58.5 -16t-30.5 -55q-9 -67 -26 -151l-8 -43q-9 -51 -33.5 -77t-70.5 -26l-1 -9q40 0 57.5 -19.5t17.5 -57.5q0 -34 -5 -76.5t-6 -50.5l-7 -60q-1 -8 -3 -23t-1 -24q0 -31 20.5 -44t49.5 -13l-7 -50q-66 0 -103.5 22.5t-37.5 84.5q0 37 16 129
q13 72 13 98q0 25 -20.5 37t-48.5 12l11 79q32 0 56.5 13.5t28.5 43.5l26 186q12 82 58 111t120 29z" />
    <glyph glyph-name="bar" unicode="|" horiz-adv-x="290" 
d="M182 -199h-80v920h80v-920z" />
    <glyph glyph-name="braceright" unicode="}" horiz-adv-x="314" 
d="M198 663.5q37 -22.5 37 -84.5q0 -21 -29 -227q0 -25 20.5 -37t49.5 -12l-11 -79q-32 0 -56.5 -14t-28.5 -43l-26 -186q-12 -82 -58 -111t-119 -29l7 50q32 0 56.5 16t31.5 55q15 89 34 194q9 51 33.5 77t70.5 26l1 9q-41 0 -58.5 19.5t-17.5 57.5q0 31 16 166q7 61 7 68
q0 31 -20 44t-49 13l7 50q65 0 102 -22.5z" />
    <glyph glyph-name="asciitilde" unicode="~" horiz-adv-x="691" 
d="M630 301q-31 -31 -77 -54.5t-97 -23.5q-29 0 -54.5 8.5t-58.5 24.5q-38 17 -62.5 25t-53.5 8q-52 0 -96 -23t-78 -55l12 85q34 32 78 55t96 23q29 0 54.5 -8.5t58.5 -24.5q38 -17 62.5 -25t53.5 -8q51 0 97 23.5t77 54.5z" />
    <glyph glyph-name="uni00A0" unicode="&#xa0;" horiz-adv-x="244" 
 />
    <glyph glyph-name="exclamdown" unicode="&#xa1;" horiz-adv-x="254" 
d="M192 399h-101l16 111h101zM150.5 167q-9.5 -97 -14.5 -152l-18 -191h-115l97 511h66q-6 -71 -15.5 -168z" />
    <glyph glyph-name="cent" unicode="&#xa2;" horiz-adv-x="527" 
d="M350 608q75 -8 117.5 -54t42.5 -120q0 -16 -3 -36h-93q2 18 2 27q0 49 -27 79t-80 30q-90 0 -128 -75.5t-38 -178.5q0 -64 30.5 -95.5t86.5 -31.5q61 0 97 36.5t45 98.5h90q-14 -96 -71.5 -150t-148.5 -60v-85h-73l19 86q-77 7 -122.5 59t-45.5 141q0 88 26.5 160
t82 117.5t137.5 51.5v85h75z" />
    <glyph glyph-name="sterling" unicode="&#xa3;" horiz-adv-x="597" 
d="M550.5 654.5q47.5 -41.5 47.5 -118.5q0 -17 -5 -46h-98q4 20 4 30q0 39 -26 63t-65 24q-54 0 -85.5 -27t-38.5 -75l-18 -123h187l-12 -89h-187l-46 -204h303l-12 -89h-473l11 89h90l29 204h-126l12 89h126l17 117q14 98 73.5 147.5t156.5 49.5h9q79 0 126.5 -41.5z" />
    <glyph glyph-name="currency" unicode="&#xa4;" horiz-adv-x="624" 
d="M600 539l-62 -54q31 -52 31 -116q0 -49 -19.5 -95.5t-54.5 -86.5l47 -54l-55 -48l-47 54q-76 -50 -156 -50q-84 0 -142 49l-61 -53l-41 48l60 53q-32 50 -32 115q0 60 21.5 106.5t52.5 79.5l-44 52l55 48l43 -52q76 50 157 50q42 0 79 -13.5t65 -38.5l62 54zM247 488.5
q-48 -27.5 -78.5 -74.5t-30.5 -103q0 -42 20 -77t55 -55.5t80 -20.5q53 0 100.5 28.5t77 75.5t29.5 100q0 43 -20 78t-55.5 55.5t-80.5 20.5q-49 0 -97 -27.5z" />
    <glyph glyph-name="yen" unicode="&#xa5;" horiz-adv-x="635" 
d="M485 440h111l-9 -64h-148l-51 -73h189l-9 -64h-211l-34 -239h-98l34 239h-209l9 64h187l-32 73h-145l9 64h108l-105 246h111l138 -319h4l226 319h101z" />
    <glyph glyph-name="brokenbar" unicode="&#xa6;" horiz-adv-x="269" 
d="M197 419h-89l38 267h89zM138 0h-89l38 266h89z" />
    <glyph glyph-name="section" unicode="&#xa7;" horiz-adv-x="516" 
d="M420.5 679.5q40.5 -16.5 61.5 -45t21 -62.5q0 -21 -5 -33h-93q3 14 3 19q0 28 -24.5 45.5t-79.5 17.5q-72 0 -97 -25t-25 -54q0 -26 17.5 -46.5t42.5 -35.5t70 -37q52 -25 83.5 -44.5t54 -49t22.5 -69.5q0 -59 -34 -102.5t-75 -59.5q57 -44 57 -110q0 -83 -57.5 -128.5
t-173.5 -45.5h-9q-54 0 -94.5 16.5t-61.5 45t-21 62.5q0 21 5 33h93q-3 -12 -3 -19q0 -28 24.5 -45.5t79.5 -17.5q72 0 97 24.5t25 54.5q0 38 -31.5 62t-96.5 54q-54 26 -86 46t-54.5 50.5t-22.5 72.5q0 44 18 77.5t43 53.5t48 28q-28 22 -42.5 47.5t-14.5 59.5
q0 90 62.5 133.5t169.5 43.5h9q54 0 94.5 -16.5zM152.5 334q-21.5 -26 -21.5 -60q0 -40 32.5 -65t97.5 -55q14 -6 42 -20q31 17 51.5 42.5t20.5 57.5q0 28 -18 49.5t-43.5 36.5t-71.5 36q-33 15 -40 19q-28 -15 -49.5 -41z" />
    <glyph glyph-name="dieresis" unicode="&#xa8;" horiz-adv-x="440" 
d="M163 633h-90l13 98h90zM352 633h-91l13 98h91z" />
    <glyph glyph-name="copyright" unicode="&#xa9;" horiz-adv-x="785" 
d="M577.5 648.5q81.5 -47.5 129 -128t47.5 -176.5q0 -97 -47.5 -178t-129 -128.5t-177.5 -47.5q-97 0 -178 47.5t-128.5 128.5t-47.5 178q0 96 47.5 177t128.5 128t178 47q96 0 177.5 -47.5zM240 614q-72 -41 -113 -112t-41 -158q0 -89 41 -161t113 -112.5t160 -40.5
q87 0 158.5 41t113 112.5t41.5 160.5q0 87 -41.5 158t-113 112t-158.5 41q-88 0 -160 -41zM523 513.5q45 -42.5 45 -125.5h-67v13q0 47 -28.5 72.5t-69.5 25.5q-45 0 -75 -25t-30 -73v-115q0 -49 31 -74t77 -25q43 0 70 28.5t27 80.5h65q0 -81 -45 -124t-117 -43h-5
q-74 0 -122 44t-48 127v86q0 82 48 126t121 44h5q73 0 118 -42.5z" />
    <glyph glyph-name="ordfeminine" unicode="&#xaa;" horiz-adv-x="419" 
d="M283 683.5q22 -12.5 34 -33.5h5l19 40h39q-12 -86 -22 -158t-13 -97q0 -17 14 -17q13 0 29 9l-5 -42q-19 -12 -47 -12q-47 0 -47 45q-21 -22 -45 -33.5t-55 -11.5q-48 0 -77 30.5t-29 90.5q0 64 20 109.5t53.5 69t73.5 23.5q31 0 53 -12.5zM162 602.5
q-22 -47.5 -22 -106.5q0 -42 17 -60t49 -18q49 0 74 43t25 111q0 43 -17.5 60.5t-49.5 17.5q-54 0 -76 -47.5z" />
    <glyph glyph-name="guillemotleft" unicode="&#xab;" horiz-adv-x="458" 
d="M134 337l68 -174h-51l-96 174l145 174h51zM317 337l67 -174h-50l-97 174l146 174h50z" />
    <glyph glyph-name="logicalnot" unicode="&#xac;" 
d="M537 174h-84l26 186h-435l13 93h519z" />
    <glyph glyph-name="uni00AD" unicode="&#xad;" horiz-adv-x="390" 
d="M311 221h-251l12 98h252z" />
    <glyph glyph-name="registered" unicode="&#xae;" horiz-adv-x="785" 
d="M577.5 648.5q81.5 -47.5 129 -128t47.5 -176.5q0 -97 -47.5 -178t-129 -128.5t-177.5 -47.5q-97 0 -178 47.5t-128.5 128.5t-47.5 178q0 96 47.5 177t128.5 128t178 47q96 0 177.5 -47.5zM240 615.5q-72 -40.5 -113 -112t-41 -159.5q0 -89 41 -161t113 -112.5t160 -40.5
t159.5 41t113 112.5t41.5 160.5q0 88 -41.5 159.5t-113.5 112t-159 40.5q-88 0 -160 -40.5zM523 517.5q34 -29.5 34 -73.5q0 -34 -19.5 -60.5t-47.5 -36.5q24 -10 42 -39.5t18 -80.5q0 -32 5 -48t26 -23v-18q-14 -6 -35 -6q-27 0 -43.5 17t-16.5 63q0 55 -20.5 81t-46.5 26
h-99v-184h-64v412h187q46 0 80 -29.5zM320 492v-119h111q26 0 44.5 17t18.5 41v4q0 24 -18.5 40.5t-44.5 16.5h-111z" />
    <glyph glyph-name="macron" unicode="&#xaf;" horiz-adv-x="460" 
d="M382 662h-318l11 74h318z" />
    <glyph glyph-name="degree" unicode="&#xb0;" horiz-adv-x="404" 
d="M352.5 657q38.5 -39 38.5 -100q0 -50 -23 -86.5t-60.5 -55.5t-80.5 -19q-68 0 -106 38.5t-38 100.5q0 50 23 86.5t60.5 55.5t78.5 19q69 0 107.5 -39zM176 613q-26 -27 -26 -73q0 -40 22.5 -64.5t61.5 -24.5q38 0 64 27.5t26 73.5q0 34 -19 61t-65 27q-38 0 -64 -27z" />
    <glyph glyph-name="plusminus" unicode="&#xb1;" 
d="M360 364h215l-12 -84h-215l-21 -146h-83l21 146h-214l12 84h214l20 147h83zM519 0h-503l11 83h503z" />
    <glyph glyph-name="uni00B2" unicode="&#xb2;" horiz-adv-x="381" 
d="M344 771q28 -29 28 -67t-18.5 -69t-66.5 -64l-128 -89q-14 -10 -14 -15h196l-6 -49h-259l2 13q9 59 64 97l121 83q55 37 55 85q0 21 -15 38t-51 17t-61.5 -24.5t-25.5 -62.5h-54q0 35 18 66t51.5 50.5t77.5 19.5q58 0 86 -29z" />
    <glyph glyph-name="uni00B3" unicode="&#xb3;" horiz-adv-x="361" 
d="M329 776.5q30 -23.5 30 -64.5q0 -66 -73 -98v-4q56 -18 56 -74q0 -55 -42 -89.5t-105 -34.5h-6q-57 0 -87 25t-30 68q0 2 2 24h54l-2 -11v-6q0 -51 70 -51q42 0 67.5 19t25.5 54q0 27 -21.5 39t-55.5 12h-41l7 49h42q35 0 59.5 18t24.5 51q0 25 -18.5 36.5t-47.5 11.5
q-31 0 -52.5 -16t-26.5 -47h-54q6 53 45 82.5t95 29.5h5q49 0 79 -23.5z" />
    <glyph glyph-name="acute" unicode="&#xb4;" horiz-adv-x="333" 
d="M261 716l-136 -141h-69l115 145h90v-4z" />
    <glyph glyph-name="uni00B5" unicode="&#xb5;" horiz-adv-x="613" 
d="M515 304q-30 -209 -29 -212q0 -13 7 -20t17 -7q11 0 24.5 4.5t22.5 9.5l-9 -69q-13 -8 -33 -14t-44 -6q-76 0 -76 74v10q-31 -35 -77 -59.5t-97 -24.5q-54 0 -91 19v-41l-18 -129h-94l95 672h94l-24 -165q-25 -166 -24 -191q0 -90 93 -90q35 0 68.5 19t57.5 51.5t30 71.5
l43 304h94z" />
    <glyph glyph-name="paragraph" unicode="&#xb6;" horiz-adv-x="524" 
d="M528 625h-66l-112 -794h-63l112 794h-72l-112 -794h-63l59 419q-72 8 -117.5 60t-45.5 125q0 67 33 125t90.5 92t127.5 34h238z" />
    <glyph glyph-name="periodcentered" unicode="&#xb7;" horiz-adv-x="238" 
d="M161 232h-101l15 112h101z" />
    <glyph glyph-name="cedilla" unicode="&#xb8;" horiz-adv-x="350" 
d="M280 -90q0 -57 -41 -82t-88 -25q-55 0 -92 22l16 49q36 -20 79 -20q26 0 44.5 13t18.5 38q0 17 -12.5 26t-33.5 9h-21l6 43h24q100 0 100 -73z" />
    <glyph glyph-name="uni00B9" unicode="&#xb9;" horiz-adv-x="332" 
d="M228 471h81l-7 -49h-234l7 49h99l36 253h-99l5 35q57 5 137 37h21z" />
    <glyph glyph-name="ordmasculine" unicode="&#xba;" horiz-adv-x="392" 
d="M342 666q34 -30 34 -90q0 -86 -40.5 -144.5t-129.5 -58.5q-56 0 -90 30t-34 90q0 86 40.5 144.5t129.5 58.5q56 0 90 -30zM166 606.5q-23 -43.5 -26 -105.5q0 -42 19.5 -62t53.5 -20q55 0 79.5 44.5t24.5 104.5q0 42 -19.5 62t-52.5 20q-56 0 -79 -43.5z" />
    <glyph glyph-name="guillemotright" unicode="&#xbb;" horiz-adv-x="460" 
d="M237 337l-149 -174h-51l120 174l-71 174h51zM418 337l-148 -174h-50l119 174l-70 174h50z" />
    <glyph glyph-name="onequarter" unicode="&#xbc;" horiz-adv-x="701" 
d="M156 0h-55l517 686h52zM198 359h81l-7 -49h-234l7 49h99l35 253h-99l6 35q54 4 136 37h21zM508 239.5q-48 -69.5 -78 -99.5h123l15 105q23 36 39 74h25l-25 -179h46l-7 -49h-46l-13 -91h-54l13 91h-173l7 50q91 113 148 233h55q-27 -65 -75 -134.5z" />
    <glyph glyph-name="onehalf" unicode="&#xbd;" horiz-adv-x="727" 
d="M137 0h-55l517 686h52zM196 359h81l-7 -49h-234l7 49h99l35 253h-99l6 35q54 4 136 37h21zM665 353q28 -29 28 -67t-18.5 -69t-66.5 -64l-128 -89q-14 -10 -14 -15h196l-6 -49h-259l2 13q9 59 64 97l121 83q55 37 55 85q0 21 -15 38t-51 17t-61.5 -24.5t-25.5 -62.5h-54
q0 35 18 66t51.5 50.5t77.5 19.5q58 0 86 -29z" />
    <glyph glyph-name="threequarters" unicode="&#xbe;" horiz-adv-x="698" 
d="M303 662.5q30 -23.5 30 -64.5q0 -66 -73 -98v-4q56 -18 56 -74q0 -55 -42 -89.5t-105 -34.5h-6q-57 0 -87 25t-30 68q0 2 2 24h54l-2 -11v-6q0 -51 70 -51q42 0 67.5 19t25.5 54q0 27 -21.5 39t-55.5 12h-41l7 49h42q35 0 59.5 18t24.5 51q0 25 -18.5 36.5t-47.5 11.5
q-31 0 -52.5 -16t-26.5 -47h-54q6 53 45 82.5t95 29.5h5q49 0 79 -23.5zM157 0h-55l517 686h52zM504 239.5q-48 -69.5 -78 -99.5h123l15 105q23 36 39 74h25l-25 -179h46l-7 -49h-46l-13 -91h-54l13 91h-173l7 50q91 113 148 233h55q-27 -65 -75 -134.5z" />
    <glyph glyph-name="questiondown" unicode="&#xbf;" horiz-adv-x="494" 
d="M307 400h-104l15 111h104zM285 262q-5 -37 -28.5 -63t-66.5 -58q-48 -36 -72.5 -65.5t-24.5 -74.5q0 -39 24.5 -68t79.5 -29q68 0 98.5 36t37.5 76q2 12 2 22t1 15h98q0 -65 -29.5 -119t-86 -86.5t-134.5 -32.5h-6q-71 0 -112 28t-57 67t-16 78q0 48 17 84.5t41.5 60.5
t61.5 52q37 29 54.5 48t20.5 44l6 49h100z" />
    <glyph glyph-name="Agrave" unicode="&#xc0;" horiz-adv-x="650" 
d="M421 750h-70l-95 142l2 3h89zM607 0h-106l-37 149h-328l-78 -149h-94l364 686h108zM357 568l-173 -330h259l-80 330h-6z" />
    <glyph glyph-name="Aacute" unicode="&#xc1;" horiz-adv-x="650" 
d="M555 891l-136 -141h-69l115 145h90v-4zM607 0h-106l-37 149h-328l-78 -149h-94l364 686h108zM357 568l-173 -330h259l-80 330h-6z" />
    <glyph glyph-name="Acircumflex" unicode="&#xc2;" horiz-adv-x="650" 
d="M552 750h-80l-81 89l-108 -89h-80l157 145h78zM607 0h-106l-37 149h-328l-78 -149h-94l364 686h108zM357 568l-173 -330h259l-80 330h-6z" />
    <glyph glyph-name="Atilde" unicode="&#xc3;" horiz-adv-x="650" 
d="M546 781.5q-33 -31.5 -87 -31.5q-22 0 -42.5 4.5t-46.5 13.5q-26 8 -42 12t-33 4q-45 0 -60 -34h-48q7 40 40 72t86 32q22 0 41 -4.5t48 -14.5q26 -8 41.5 -12t32.5 -4q45 0 60 35h50q-7 -41 -40 -72.5zM607 0h-106l-37 149h-328l-78 -149h-94l364 686h108zM357 568
l-173 -330h259l-80 330h-6z" />
    <glyph glyph-name="Adieresis" unicode="&#xc4;" horiz-adv-x="650" 
d="M336 750h-90l13 98h90zM525 750h-91l13 98h91zM607 0h-106l-37 149h-328l-78 -149h-94l364 686h108zM357 568l-173 -330h259l-80 330h-6z" />
    <glyph glyph-name="Aring" unicode="&#xc5;" horiz-adv-x="650" 
d="M469 895.5q27 -26.5 27 -67.5q0 -29 -15.5 -54t-40.5 -39.5t-53 -14.5q-42 0 -69 26t-27 68q0 46 33 77t76 31q42 0 69 -26.5zM354 862.5q-18 -18.5 -18 -45.5q0 -24 15 -40t39 -16t42.5 19t18.5 45q0 24 -15 40t-39 16q-25 0 -43 -18.5zM607 0h-106l-37 149h-328
l-78 -149h-94l364 686h108zM357 568l-173 -330h259l-80 330h-6z" />
    <glyph glyph-name="AE" unicode="&#xc6;" horiz-adv-x="981" 
d="M961 597h-418l22 -202h336l-13 -89h-314l24 -217h298v-89h-394l-16 149h-328l-99 -149h-92l459 686h561zM438 568l-219 -330h259l-34 330h-6z" />
    <glyph glyph-name="Ccedilla" unicode="&#xc7;" horiz-adv-x="662" 
d="M567.5 640q63.5 -56 63.5 -163q0 -29 -4 -54h-98q3 23 3 43q0 71 -38.5 106t-105.5 35q-86 0 -142.5 -53.5t-72.5 -165.5q-17 -116 -17 -147q0 -83 41 -122.5t116 -39.5q78 0 131 45.5t66 136.5h94q-20 -136 -100 -203.5t-203 -67.5q-112 0 -178 61.5t-66 180.5
q0 36 18 156q22 154 106.5 231t218.5 77q104 0 167.5 -56zM383 -90q0 -57 -41 -82t-88 -25q-55 0 -92 22l16 49q36 -20 79 -20q26 0 44.5 13t18.5 38q0 17 -12.5 26t-33.5 9h-21l6 43h24q100 0 100 -73z" />
    <glyph glyph-name="Egrave" unicode="&#xc8;" horiz-adv-x="592" 
d="M421 750h-70l-95 142l2 3h89zM572 597h-339l-28 -202h307l-13 -89h-307l-30 -217h345v-89h-456l97 686h450z" />
    <glyph glyph-name="Eacute" unicode="&#xc9;" horiz-adv-x="592" 
d="M538 891l-136 -141h-69l115 145h90v-4zM572 597h-339l-28 -202h307l-13 -89h-307l-30 -217h345v-89h-456l97 686h450z" />
    <glyph glyph-name="Ecircumflex" unicode="&#xca;" horiz-adv-x="592" 
d="M554 750h-80l-81 89l-108 -89h-80l157 145h78zM572 597h-339l-28 -202h307l-13 -89h-307l-30 -217h345v-89h-456l97 686h450z" />
    <glyph glyph-name="Edieresis" unicode="&#xcb;" horiz-adv-x="592" 
d="M327 750h-90l13 98h90zM516 750h-91l13 98h91zM572 597h-339l-28 -202h307l-13 -89h-307l-30 -217h345v-89h-456l97 686h450z" />
    <glyph glyph-name="Igrave" unicode="&#xcc;" horiz-adv-x="365" 
d="M273 750h-70l-95 142l2 3h89zM354 597h-80l-71 -508h80l-13 -89h-258l13 89h80l71 508h-80l13 89h258z" />
    <glyph glyph-name="Iacute" unicode="&#xcd;" horiz-adv-x="365" 
d="M407 891l-136 -141h-69l115 145h90v-4zM354 597h-80l-71 -508h80l-13 -89h-258l13 89h80l71 508h-80l13 89h258z" />
    <glyph glyph-name="Icircumflex" unicode="&#xce;" horiz-adv-x="365" 
d="M420 750h-80l-81 89l-108 -89h-80l157 145h78zM354 597h-80l-71 -508h80l-13 -89h-258l13 89h80l71 508h-80l13 89h258z" />
    <glyph glyph-name="Idieresis" unicode="&#xcf;" horiz-adv-x="365" 
d="M197 750h-90l13 98h90zM386 750h-91l13 98h91zM354 597h-80l-71 -508h80l-13 -89h-258l13 89h80l71 508h-80l13 89h258z" />
    <glyph glyph-name="Eth" unicode="&#xd0;" horiz-adv-x="682" 
d="M568.5 623.5q67.5 -62.5 67.5 -181.5q0 -23 -13 -134q-18 -153 -104 -230.5t-225 -77.5h-238l44 310h-90l8 65h91l44 311h238q110 0 177.5 -62.5zM238 597l-31 -222h145l-9 -65h-145l-31 -221h140q85 0 143.5 54t73.5 165q13 105 13 124q0 84 -42.5 124.5t-116.5 40.5
h-140z" />
    <glyph glyph-name="Ntilde" unicode="&#xd1;" horiz-adv-x="694" 
d="M581 781.5q-33 -31.5 -87 -31.5q-22 0 -42.5 4.5t-46.5 13.5q-26 8 -42 12t-33 4q-45 0 -60 -34h-48q7 40 40 72t86 32q22 0 41 -4.5t48 -14.5q26 -8 41.5 -12t32.5 -4q45 0 60 35h50q-7 -41 -40 -72.5zM561 0h-83l-264 502l-3 -1l-71 -501h-89l97 686h86l262 -496l3 1
l70 495h89z" />
    <glyph glyph-name="Ograve" unicode="&#xd2;" horiz-adv-x="690" 
d="M436 750h-70l-95 142l2 3h89zM579.5 633q67.5 -63 67.5 -183q0 -33 -17 -152q-21 -152 -108 -230t-219 -78q-110 0 -178 63t-68 182q-1 14 1 31t6 44l11 78q20 151 108 229.5t219 78.5q110 0 177.5 -63zM246 553.5q-57 -53.5 -73 -165.5q-17 -125 -17 -144
q0 -84 42 -124.5t117 -40.5q85 0 142.5 53.5t74.5 165.5q17 115 17 144q0 84 -42.5 124.5t-116.5 40.5q-87 0 -144 -53.5z" />
    <glyph glyph-name="Oacute" unicode="&#xd3;" horiz-adv-x="690" 
d="M578 891l-136 -141h-69l115 145h90v-4zM579.5 633q67.5 -63 67.5 -183q0 -33 -17 -152q-21 -152 -108 -230t-219 -78q-110 0 -178 63t-68 182q-1 14 1 31t6 44l11 78q20 151 108 229.5t219 78.5q110 0 177.5 -63zM246 553.5q-57 -53.5 -73 -165.5q-17 -125 -17 -144
q0 -84 42 -124.5t117 -40.5q85 0 142.5 53.5t74.5 165.5q17 115 17 144q0 84 -42.5 124.5t-116.5 40.5q-87 0 -144 -53.5z" />
    <glyph glyph-name="Ocircumflex" unicode="&#xd4;" horiz-adv-x="690" 
d="M598 750h-80l-81 89l-108 -89h-80l157 145h78zM579.5 633q67.5 -63 67.5 -183q0 -33 -17 -152q-21 -152 -108 -230t-219 -78q-110 0 -178 63t-68 182q-1 14 1 31t6 44l11 78q20 151 108 229.5t219 78.5q110 0 177.5 -63zM246 553.5q-57 -53.5 -73 -165.5
q-17 -125 -17 -144q0 -84 42 -124.5t117 -40.5q85 0 142.5 53.5t74.5 165.5q17 115 17 144q0 84 -42.5 124.5t-116.5 40.5q-87 0 -144 -53.5z" />
    <glyph glyph-name="Otilde" unicode="&#xd5;" horiz-adv-x="690" 
d="M587 781.5q-33 -31.5 -87 -31.5q-22 0 -42.5 4.5t-46.5 13.5q-26 8 -42 12t-33 4q-45 0 -60 -34h-48q7 40 40 72t86 32q22 0 41 -4.5t48 -14.5q26 -8 41.5 -12t32.5 -4q45 0 60 35h50q-7 -41 -40 -72.5zM579.5 633q67.5 -63 67.5 -183q0 -33 -17 -152q-21 -152 -108 -230
t-219 -78q-110 0 -178 63t-68 182q-1 14 1 31t6 44l11 78q20 151 108 229.5t219 78.5q110 0 177.5 -63zM246 553.5q-57 -53.5 -73 -165.5q-17 -125 -17 -144q0 -84 42 -124.5t117 -40.5q85 0 142.5 53.5t74.5 165.5q17 115 17 144q0 84 -42.5 124.5t-116.5 40.5
q-87 0 -144 -53.5z" />
    <glyph glyph-name="Odieresis" unicode="&#xd6;" horiz-adv-x="690" 
d="M365 750h-90l13 98h90zM554 750h-91l13 98h91zM579.5 633q67.5 -63 67.5 -183q0 -33 -17 -152q-21 -152 -108 -230t-219 -78q-110 0 -178 63t-68 182q-1 14 1 31t6 44l11 78q20 151 108 229.5t219 78.5q110 0 177.5 -63zM246 553.5q-57 -53.5 -73 -165.5
q-17 -125 -17 -144q0 -84 42 -124.5t117 -40.5q85 0 142.5 53.5t74.5 165.5q17 115 17 144q0 84 -42.5 124.5t-116.5 40.5q-87 0 -144 -53.5z" />
    <glyph glyph-name="multiply" unicode="&#xd7;" 
d="M500 448q30 -38 32 -41l-175 -152l132 -151l-48 -44l-15 -15l-58 66q-61 69 -74 84l-175 -150q-2 3 -32 41l-15 18l174 151l-131 152l48 44l15 15l133 -152l174 152z" />
    <glyph glyph-name="Oslash" unicode="&#xd8;" horiz-adv-x="690" 
d="M590 621q57 -65 57 -171q0 -33 -17 -152q-21 -152 -108 -230t-219 -78q-88 0 -149 40l-70 -95h-64l95 128q-58 64 -58 172q0 18 3.5 44.5t4.5 36.5l10 72q20 151 108 229.5t219 78.5q88 0 150 -41l73 99h64zM246 553.5q-57 -53.5 -73 -165.5q-17 -125 -17 -144
q0 -59 21 -97l317 430q-41 30 -104 30q-87 0 -144 -53.5zM211 107q40 -28 104 -28q85 0 142.5 53.5t74.5 165.5q17 115 17 144q0 55 -21 95z" />
    <glyph glyph-name="Ugrave" unicode="&#xd9;" horiz-adv-x="682" 
d="M442 750h-70l-95 142l2 3h89zM585 219q-15 -107 -87.5 -168t-192.5 -61h-13q-102 0 -160 51t-58 139q0 11 8 69t12 85l48 352h98l-44 -314l-14 -100l-6 -44q-3 -19 -3 -28q0 -54 36.5 -87.5t101.5 -33.5q72 0 119.5 39t56.5 103l65 465h98z" />
    <glyph glyph-name="Uacute" unicode="&#xda;" horiz-adv-x="682" 
d="M572 891l-136 -141h-69l115 145h90v-4zM585 219q-15 -107 -87.5 -168t-192.5 -61h-13q-102 0 -160 51t-58 139q0 11 8 69t12 85l48 352h98l-44 -314l-14 -100l-6 -44q-3 -19 -3 -28q0 -54 36.5 -87.5t101.5 -33.5q72 0 119.5 39t56.5 103l65 465h98z" />
    <glyph glyph-name="Ucircumflex" unicode="&#xdb;" horiz-adv-x="682" 
d="M572 750h-80l-81 89l-108 -89h-80l157 145h78zM585 219q-15 -107 -87.5 -168t-192.5 -61h-13q-102 0 -160 51t-58 139q0 11 8 69t12 85l48 352h98l-44 -314l-14 -100l-6 -44q-3 -19 -3 -28q0 -54 36.5 -87.5t101.5 -33.5q72 0 119.5 39t56.5 103l65 465h98z" />
    <glyph glyph-name="Udieresis" unicode="&#xdc;" horiz-adv-x="682" 
d="M355 749h-90l13 98h90zM544 749h-91l13 98h91zM585 219q-15 -107 -87.5 -168t-192.5 -61h-13q-102 0 -160 51t-58 139q0 11 8 69t12 85l48 352h98l-44 -314l-14 -100l-6 -44q-3 -19 -3 -28q0 -54 36.5 -87.5t101.5 -33.5q72 0 119.5 39t56.5 103l65 465h98z" />
    <glyph glyph-name="Yacute" unicode="&#xdd;" horiz-adv-x="570" 
d="M510 891l-136 -141h-69l115 145h90v-4zM329 265l-38 -265h-98l38 265l-182 421h111l138 -319h4l226 319h101z" />
    <glyph glyph-name="Thorn" unicode="&#xde;" horiz-adv-x="633" 
d="M228 562h198q78 0 128.5 -46.5t50.5 -122.5q0 -71 -33 -123.5t-86.5 -80t-115.5 -27.5h-198l-23 -162h-98l97 686h98zM216 473l-31 -222h189q34 0 64.5 17.5t49 47t18.5 62.5q0 40 -28.5 67.5t-72.5 27.5h-189z" />
    <glyph glyph-name="germandbls" unicode="&#xdf;" horiz-adv-x="614" 
d="M526 685.5q53 -42.5 53 -114.5q0 -65 -33.5 -112t-89.5 -68l1 -4q45 -17 71.5 -59t26.5 -93q0 -70 -34.5 -123.5t-93 -82.5t-126.5 -29h-83l11 75h73q41 0 77.5 21t59 57.5t22.5 78.5q0 49 -34 81.5t-87 32.5h-73l10 74h65q38 0 70.5 19t51.5 50.5t19 67.5
q0 45 -26.5 70.5t-74.5 25.5q-61 0 -102.5 -38.5t-50.5 -101.5l-81 -579h-94l70 502h-58l11 75h58q16 102 83.5 159.5t173.5 57.5q81 0 134 -42.5z" />
    <glyph glyph-name="agrave" unicode="&#xe0;" horiz-adv-x="607" 
d="M344 575h-70l-95 142l2 3h89zM371 500.5q37 -20.5 56 -54.5h7l31 65h65q-18 -114 -35.5 -245.5t-22.5 -173.5q0 -13 7 -20t17 -7q11 0 24.5 4.5t22.5 9.5l-9 -69q-13 -8 -33 -14t-44 -6q-76 0 -76 75q-69 -75 -165 -75q-79 0 -126.5 50.5t-47.5 149.5q0 104 32.5 179
t87.5 113.5t122 38.5q50 0 87 -20.5zM172 368.5q-37 -77.5 -37 -175.5q0 -69 28 -98.5t81 -29.5q80 0 121 71t41 182q0 68 -28.5 98t-80.5 30q-88 0 -125 -77.5z" />
    <glyph glyph-name="aacute" unicode="&#xe1;" horiz-adv-x="607" 
d="M467 716l-136 -141h-69l115 145h90v-4zM371 500.5q37 -20.5 56 -54.5h7l31 65h65q-18 -114 -35.5 -245.5t-22.5 -173.5q0 -13 7 -20t17 -7q11 0 24.5 4.5t22.5 9.5l-9 -69q-13 -8 -33 -14t-44 -6q-76 0 -76 75q-69 -75 -165 -75q-79 0 -126.5 50.5t-47.5 149.5
q0 104 32.5 179t87.5 113.5t122 38.5q50 0 87 -20.5zM172 368.5q-37 -77.5 -37 -175.5q0 -69 28 -98.5t81 -29.5q80 0 121 71t41 182q0 68 -28.5 98t-80.5 30q-88 0 -125 -77.5z" />
    <glyph glyph-name="acircumflex" unicode="&#xe2;" horiz-adv-x="607" 
d="M494 575h-80l-81 89l-108 -89h-80l157 145h78zM371 500.5q37 -20.5 56 -54.5h7l31 65h65q-18 -114 -35.5 -245.5t-22.5 -173.5q0 -13 7 -20t17 -7q11 0 24.5 4.5t22.5 9.5l-9 -69q-13 -8 -33 -14t-44 -6q-76 0 -76 75q-69 -75 -165 -75q-79 0 -126.5 50.5t-47.5 149.5
q0 104 32.5 179t87.5 113.5t122 38.5q50 0 87 -20.5zM172 368.5q-37 -77.5 -37 -175.5q0 -69 28 -98.5t81 -29.5q80 0 121 71t41 182q0 68 -28.5 98t-80.5 30q-88 0 -125 -77.5z" />
    <glyph glyph-name="atilde" unicode="&#xe3;" horiz-adv-x="607" 
d="M488 647.5q-33 -31.5 -87 -31.5q-22 0 -42.5 4.5t-46.5 13.5q-26 8 -42 12t-33 4q-45 0 -60 -34h-48q7 40 40 72t86 32q22 0 41 -4.5t48 -14.5q26 -8 41.5 -12t32.5 -4q45 0 60 35h50q-7 -41 -40 -72.5zM371 500.5q37 -20.5 56 -54.5h7l31 65h65q-18 -114 -35.5 -245.5
t-22.5 -173.5q0 -13 7 -20t17 -7q11 0 24.5 4.5t22.5 9.5l-9 -69q-13 -8 -33 -14t-44 -6q-76 0 -76 75q-69 -75 -165 -75q-79 0 -126.5 50.5t-47.5 149.5q0 104 32.5 179t87.5 113.5t122 38.5q50 0 87 -20.5zM172 368.5q-37 -77.5 -37 -175.5q0 -69 28 -98.5t81 -29.5
q80 0 121 71t41 182q0 68 -28.5 98t-80.5 30q-88 0 -125 -77.5z" />
    <glyph glyph-name="adieresis" unicode="&#xe4;" horiz-adv-x="607" 
d="M270 622h-90l13 98h90zM459 622h-91l13 98h91zM371 500.5q37 -20.5 56 -54.5h7l31 65h65q-18 -114 -35.5 -245.5t-22.5 -173.5q0 -13 7 -20t17 -7q11 0 24.5 4.5t22.5 9.5l-9 -69q-13 -8 -33 -14t-44 -6q-76 0 -76 75q-69 -75 -165 -75q-79 0 -126.5 50.5t-47.5 149.5
q0 104 32.5 179t87.5 113.5t122 38.5q50 0 87 -20.5zM172 368.5q-37 -77.5 -37 -175.5q0 -69 28 -98.5t81 -29.5q80 0 121 71t41 182q0 68 -28.5 98t-80.5 30q-88 0 -125 -77.5z" />
    <glyph glyph-name="aring" unicode="&#xe5;" horiz-adv-x="607" 
d="M403 723.5q27 -26.5 27 -67.5q0 -29 -15.5 -54t-40.5 -39.5t-53 -14.5q-42 0 -69 26t-27 68q0 46 33 77t76 31q42 0 69 -26.5zM288 690.5q-18 -18.5 -18 -45.5q0 -24 15 -40t39 -16t42.5 19t18.5 45q0 24 -15 40t-39 16q-25 0 -43 -18.5zM371 500.5q37 -20.5 56 -54.5h7
l31 65h65q-18 -114 -35.5 -245.5t-22.5 -173.5q0 -13 7 -20t17 -7q11 0 24.5 4.5t22.5 9.5l-9 -69q-13 -8 -33 -14t-44 -6q-76 0 -76 75q-69 -75 -165 -75q-79 0 -126.5 50.5t-47.5 149.5q0 104 32.5 179t87.5 113.5t122 38.5q50 0 87 -20.5zM172 368.5
q-37 -77.5 -37 -175.5q0 -69 28 -98.5t81 -29.5q80 0 121 71t41 182q0 68 -28.5 98t-80.5 30q-88 0 -125 -77.5z" />
    <glyph glyph-name="ae" unicode="&#xe6;" horiz-adv-x="895" 
d="M795.5 474q50.5 -47 50.5 -130q0 -42 -13 -110h-357q-2 -22 -2 -32q0 -63 29 -100t92 -37q73 0 104 40t39 85h89q-8 -60 -42 -105.5t-86 -70t-114 -24.5h-4q-67 0 -114 28.5t-70 82.5q-44 -56 -96.5 -83.5t-127.5 -27.5q-66 0 -107 30t-41 97q0 80 46.5 121.5t124.5 55
t197 13.5q7 46 7 61v6q0 32 -22 52t-83 20q-108 0 -125 -80l-2 -12h-92q0 49 30.5 87t83 59t118.5 21h9q125 0 164 -64q70 64 172 64h7q85 0 135.5 -47zM546.5 411q-40.5 -35 -57.5 -104h262q3 20 3 36q0 50 -30 76.5t-79 26.5q-58 0 -98.5 -35zM185.5 213.5
q-65.5 -20.5 -65.5 -78.5q0 -41 22 -55.5t74 -14.5q36 0 71.5 18t61 52t31.5 79l2 20q-131 0 -196.5 -20.5z" />
    <glyph glyph-name="ccedilla" unicode="&#xe7;" horiz-adv-x="546" 
d="M451.5 474q50.5 -47 50.5 -128q0 -16 -3 -36h-93q2 18 2 27q0 49 -27 79t-80 30q-90 0 -128 -75.5t-38 -178.5q0 -64 30.5 -95.5t86.5 -31.5q61 0 97 36.5t45 98.5h90q-14 -101 -77 -155.5t-164 -54.5h-8q-88 0 -140.5 53t-52.5 148q0 91 29 166t89 119.5t149 44.5h8
q84 0 134.5 -47zM328 -90q0 -57 -41 -82t-88 -25q-55 0 -92 22l16 49q36 -20 79 -20q26 0 44.5 13t18.5 38q0 17 -12.5 26t-33.5 9h-21l6 43h24q100 0 100 -73z" />
    <glyph glyph-name="egrave" unicode="&#xe8;" horiz-adv-x="556" 
d="M356 575h-70l-95 142l2 3h89zM456.5 474q50.5 -47 50.5 -130v-11q0 -21 -13 -99h-357q-2 -22 -2 -32q0 -63 29 -100t92 -37q73 0 104 40t39 85h89q-13 -94 -76.5 -147t-165.5 -53h-4q-92 0 -146.5 53t-54.5 150q0 89 30.5 164t92 119.5t150.5 44.5h7q85 0 135.5 -47z
M207.5 411q-40.5 -35 -57.5 -104h262q3 20 3 36q0 50 -30 76.5t-79 26.5q-58 0 -98.5 -35z" />
    <glyph glyph-name="eacute" unicode="&#xe9;" horiz-adv-x="556" 
d="M480 716l-136 -141h-69l115 145h90v-4zM456.5 474q50.5 -47 50.5 -130v-11q0 -21 -13 -99h-357q-2 -22 -2 -32q0 -63 29 -100t92 -37q73 0 104 40t39 85h89q-13 -94 -76.5 -147t-165.5 -53h-4q-92 0 -146.5 53t-54.5 150q0 89 30.5 164t92 119.5t150.5 44.5h7
q85 0 135.5 -47zM207.5 411q-40.5 -35 -57.5 -104h262q3 20 3 36q0 50 -30 76.5t-79 26.5q-58 0 -98.5 -35z" />
    <glyph glyph-name="ecircumflex" unicode="&#xea;" horiz-adv-x="556" 
d="M491 575h-80l-81 89l-108 -89h-80l157 145h78zM456.5 474q50.5 -47 50.5 -130v-11q0 -21 -13 -99h-357q-2 -22 -2 -32q0 -63 29 -100t92 -37q73 0 104 40t39 85h89q-13 -94 -76.5 -147t-165.5 -53h-4q-92 0 -146.5 53t-54.5 150q0 89 30.5 164t92 119.5t150.5 44.5h7
q85 0 135.5 -47zM207.5 411q-40.5 -35 -57.5 -104h262q3 20 3 36q0 50 -30 76.5t-79 26.5q-58 0 -98.5 -35z" />
    <glyph glyph-name="edieresis" unicode="&#xeb;" horiz-adv-x="556" 
d="M273 622h-90l13 98h90zM462 622h-91l13 98h91zM456.5 474q50.5 -47 50.5 -130v-11q0 -21 -13 -99h-357q-2 -22 -2 -32q0 -63 29 -100t92 -37q73 0 104 40t39 85h89q-13 -94 -76.5 -147t-165.5 -53h-4q-92 0 -146.5 53t-54.5 150q0 89 30.5 164t92 119.5t150.5 44.5h7
q85 0 135.5 -47zM207.5 411q-40.5 -35 -57.5 -104h262q3 20 3 36q0 50 -30 76.5t-79 26.5q-58 0 -98.5 -35z" />
    <glyph glyph-name="igrave" unicode="&#xec;" horiz-adv-x="261" 
d="M200 575h-70l-95 142l2 3h89zM137 0h-94l71 511h94z" />
    <glyph glyph-name="iacute" unicode="&#xed;" horiz-adv-x="261" 
d="M322 716l-136 -141h-69l115 145h90v-4zM137 0h-94l71 511h94z" />
    <glyph glyph-name="icircumflex" unicode="&#xee;" horiz-adv-x="261" 
d="M339 575h-80l-81 89l-108 -89h-80l157 145h78zM137 0h-94l71 511h94z" />
    <glyph glyph-name="idieresis" unicode="&#xef;" horiz-adv-x="261" 
d="M123 621h-90l13 98h90zM312 621h-91l13 98h91zM137 0h-94l71 511h94z" />
    <glyph glyph-name="eth" unicode="&#xf0;" horiz-adv-x="576" 
d="M322 673l100 44q6 -7 14 -17t13 -17l-93 -40q74 -67 120 -148.5t46 -172.5q0 -151 -69 -241.5t-208 -90.5q-92 0 -148.5 50.5t-56.5 147.5q0 87 30 162.5t93 123t156 47.5q16 0 32 -3q-32 47 -71 87l-48 -21q-28 -12 -49 -22l-31 33l100 44q-16 15 -57 44q-18 12 -24 17
l27 12q24 10 36 17q49 -28 88 -56zM210 409q-39 -37 -56.5 -93.5t-17.5 -117.5q0 -68 32.5 -100.5t86.5 -32.5q59 0 97.5 36t56.5 92t18 118q0 69 -32 102t-86 33q-60 0 -99 -37z" />
    <glyph glyph-name="ntilde" unicode="&#xf1;" horiz-adv-x="593" 
d="M513 647.5q-33 -31.5 -87 -31.5q-22 0 -42.5 4.5t-46.5 13.5q-26 8 -42 12t-33 4q-45 0 -60 -34h-48q7 40 40 72t86 32q22 0 41 -4.5t48 -14.5q26 -8 41.5 -12t32.5 -4q45 0 60 35h50q-7 -41 -40 -72.5zM482 486q43 -35 43 -106q0 -22 -26 -202l-25 -178h-94l24 167
l12 89q12 86 12 100q0 46 -24.5 68t-68.5 22q-35 0 -69 -19t-58 -51.5t-29 -71.5l-43 -304h-94l72 511h70v-75q78 85 183 85q72 0 115 -35z" />
    <glyph glyph-name="ograve" unicode="&#xf2;" horiz-adv-x="576" 
d="M366 575h-70l-95 142l2 3h89zM467.5 470.5q56.5 -50.5 56.5 -146.5q0 -90 -27 -165t-89.5 -122t-162.5 -47q-91 0 -147.5 50.5t-56.5 146.5q0 89 27 164.5t89.5 122.5t162.5 47q91 0 147.5 -50.5zM176.5 372.5q-40.5 -73.5 -40.5 -172.5q0 -68 33 -101.5t87 -33.5
q61 0 99.5 36.5t55.5 92t17 116.5q0 69 -32.5 102.5t-86.5 33.5q-92 0 -132.5 -73.5z" />
    <glyph glyph-name="oacute" unicode="&#xf3;" horiz-adv-x="576" 
d="M499 716l-136 -141h-69l115 145h90v-4zM467.5 470.5q56.5 -50.5 56.5 -146.5q0 -90 -27 -165t-89.5 -122t-162.5 -47q-91 0 -147.5 50.5t-56.5 146.5q0 89 27 164.5t89.5 122.5t162.5 47q91 0 147.5 -50.5zM176.5 372.5q-40.5 -73.5 -40.5 -172.5q0 -68 33 -101.5
t87 -33.5q61 0 99.5 36.5t55.5 92t17 116.5q0 69 -32.5 102.5t-86.5 33.5q-92 0 -132.5 -73.5z" />
    <glyph glyph-name="ocircumflex" unicode="&#xf4;" horiz-adv-x="576" 
d="M510 575h-80l-81 89l-108 -89h-80l157 145h78zM467.5 470.5q56.5 -50.5 56.5 -146.5q0 -90 -27 -165t-89.5 -122t-162.5 -47q-91 0 -147.5 50.5t-56.5 146.5q0 89 27 164.5t89.5 122.5t162.5 47q91 0 147.5 -50.5zM176.5 372.5q-40.5 -73.5 -40.5 -172.5q0 -68 33 -101.5
t87 -33.5q61 0 99.5 36.5t55.5 92t17 116.5q0 69 -32.5 102.5t-86.5 33.5q-92 0 -132.5 -73.5z" />
    <glyph glyph-name="otilde" unicode="&#xf5;" horiz-adv-x="576" 
d="M492 646.5q-33 -31.5 -87 -31.5q-22 0 -42.5 4.5t-46.5 13.5q-26 8 -42 12t-33 4q-45 0 -60 -34h-48q7 40 40 72t86 32q22 0 41 -4.5t48 -14.5q26 -8 41.5 -12t32.5 -4q45 0 60 35h50q-7 -41 -40 -72.5zM467.5 470.5q56.5 -50.5 56.5 -146.5q0 -90 -27 -165t-89.5 -122
t-162.5 -47q-91 0 -147.5 50.5t-56.5 146.5q0 89 27 164.5t89.5 122.5t162.5 47q91 0 147.5 -50.5zM176.5 372.5q-40.5 -73.5 -40.5 -172.5q0 -68 33 -101.5t87 -33.5q61 0 99.5 36.5t55.5 92t17 116.5q0 69 -32.5 102.5t-86.5 33.5q-92 0 -132.5 -73.5z" />
    <glyph glyph-name="odieresis" unicode="&#xf6;" horiz-adv-x="576" 
d="M282 621h-90l13 98h90zM471 621h-91l13 98h91zM467.5 470.5q56.5 -50.5 56.5 -146.5q0 -90 -27 -165t-89.5 -122t-162.5 -47q-91 0 -147.5 50.5t-56.5 146.5q0 89 27 164.5t89.5 122.5t162.5 47q91 0 147.5 -50.5zM176.5 372.5q-40.5 -73.5 -40.5 -172.5q0 -68 33 -101.5
t87 -33.5q61 0 99.5 36.5t55.5 92t17 116.5q0 69 -32.5 102.5t-86.5 33.5q-92 0 -132.5 -73.5z" />
    <glyph glyph-name="divide" unicode="&#xf7;" 
d="M360 369h-83l13 91h83zM553 213h-512l11 84h512zM316 51h-83l12 90h83z" />
    <glyph glyph-name="oslash" unicode="&#xf8;" horiz-adv-x="576" 
d="M472 466q52 -54 52 -142q0 -90 -27 -165t-89.5 -122t-162.5 -47q-68 0 -116 27l-55 -72h-59l77 100q-51 53 -51 142t27 164.5t89.5 122.5t162.5 47q66 0 114 -27l57 74h59zM180.5 376q-36.5 -70 -44.5 -176q0 -47 15 -77l230 302q-30 21 -72 21q-92 0 -128.5 -70zM182 86
q29 -21 74 -21q61 0 99.5 36.5t55.5 92t17 116.5q0 47 -16 78z" />
    <glyph glyph-name="ugrave" unicode="&#xf9;" horiz-adv-x="617" 
d="M368 575h-70l-95 142l2 3h89zM511 304q-30 -209 -29 -212q0 -13 7 -20t17 -7q11 0 24.5 4t22.5 10l-9 -69q-13 -8 -33 -14t-44 -6q-76 0 -76 74v10q-31 -35 -77 -59.5t-97 -24.5q-73 0 -116 35t-43 106q0 39 51 380h94l-24 -165q-25 -166 -24 -191q0 -90 93 -90
q35 0 68.5 19t57.5 51.5t30 71.5l43 304h94z" />
    <glyph glyph-name="uacute" unicode="&#xfa;" horiz-adv-x="617" 
d="M497 716l-136 -141h-69l115 145h90v-4zM511 304q-30 -209 -29 -212q0 -13 7 -20t17 -7q11 0 24.5 4t22.5 10l-9 -69q-13 -8 -33 -14t-44 -6q-76 0 -76 74v10q-31 -35 -77 -59.5t-97 -24.5q-73 0 -116 35t-43 106q0 39 51 380h94l-24 -165q-25 -166 -24 -191q0 -90 93 -90
q35 0 68.5 19t57.5 51.5t30 71.5l43 304h94z" />
    <glyph glyph-name="ucircumflex" unicode="&#xfb;" horiz-adv-x="617" 
d="M507 575h-80l-81 89l-108 -89h-80l157 145h78zM511 304q-30 -209 -29 -212q0 -13 7 -20t17 -7q11 0 24.5 4t22.5 10l-9 -69q-13 -8 -33 -14t-44 -6q-76 0 -76 74v10q-31 -35 -77 -59.5t-97 -24.5q-73 0 -116 35t-43 106q0 39 51 380h94l-24 -165q-25 -166 -24 -191
q0 -90 93 -90q35 0 68.5 19t57.5 51.5t30 71.5l43 304h94z" />
    <glyph glyph-name="udieresis" unicode="&#xfc;" horiz-adv-x="617" 
d="M285 622h-90l13 98h90zM474 622h-91l13 98h91zM511 304q-30 -209 -29 -212q0 -13 7 -20t17 -7q11 0 24.5 4t22.5 10l-9 -69q-13 -8 -33 -14t-44 -6q-76 0 -76 74v10q-31 -35 -77 -59.5t-97 -24.5q-73 0 -116 35t-43 106q0 39 51 380h94l-24 -165q-25 -166 -24 -191
q0 -90 93 -90q35 0 68.5 19t57.5 51.5t30 71.5l43 304h94z" />
    <glyph glyph-name="yacute" unicode="&#xfd;" horiz-adv-x="510" 
d="M459 716l-136 -141h-69l115 145h90v-4zM269 20q-52 -98 -102.5 -152t-114.5 -54q-41 0 -71 14l10 77q11 -6 27 -10t31 -4q26 0 58 24t62 90l-127 506h99l94 -377h4l198 377h92z" />
    <glyph glyph-name="thorn" unicode="&#xfe;" horiz-adv-x="582" 
d="M201 455q61 66 156 66q78 0 126 -50.5t48 -150.5q0 -76 -24.5 -151.5t-79 -127t-138.5 -51.5q-52 0 -88 20t-55 55l-35 -246h-94l127 901h94zM212 384q-45 -62 -45 -191q0 -69 28 -98.5t81 -29.5q59 0 95 38.5t51.5 95.5t15.5 118q0 69 -28.5 99t-80.5 30q-72 0 -117 -62
z" />
    <glyph glyph-name="ydieresis" unicode="&#xff;" horiz-adv-x="510" 
d="M247 621h-90l13 98h90zM436 621h-91l13 98h91zM269 20q-52 -98 -102.5 -152t-114.5 -54q-41 0 -71 14l10 77q11 -6 27 -10t31 -4q26 0 58 24t62 90l-127 506h99l94 -377h4l198 377h92z" />
    <glyph glyph-name="Amacron" unicode="&#x100;" horiz-adv-x="650" 
d="M607 0h-106l-37 149h-328l-78 -149h-94l364 686h108zM357 568l-173 -330h259l-80 330h-6zM555 837h-318l11 74h318z" />
    <glyph glyph-name="amacron" unicode="&#x101;" horiz-adv-x="607" 
d="M371 500.5q37 -20.5 56 -54.5h7l31 65h65q-18 -114 -35.5 -245.5t-22.5 -173.5q0 -13 7 -20t17 -7q11 0 24.5 4.5t22.5 9.5l-9 -69q-13 -8 -33 -14t-44 -6q-76 0 -76 75q-69 -75 -165 -75q-79 0 -126.5 50.5t-47.5 149.5q0 104 32.5 179t87.5 113.5t122 38.5
q50 0 87 -20.5zM172 368.5q-37 -77.5 -37 -175.5q0 -69 28 -98.5t81 -29.5q80 0 121 71t41 182q0 68 -28.5 98t-80.5 30q-88 0 -125 -77.5zM477 662h-318l11 74h318z" />
    <glyph glyph-name="Abreve" unicode="&#x102;" horiz-adv-x="650" 
d="M607 0h-106l-37 149h-328l-78 -149h-94l364 686h108zM357 568l-173 -330h259l-80 330h-6zM561 855q-30 -29 -77 -48t-99 -19q-48 0 -88.5 17t-64 44t-23.5 55q0 6 1 8h67q5 -27 38 -44.5t80 -17.5q46 0 83 17.5t49 44.5h68q-4 -28 -34 -57z" />
    <glyph glyph-name="abreve" unicode="&#x103;" horiz-adv-x="607" 
d="M371 500.5q37 -20.5 56 -54.5h7l31 65h65q-18 -114 -35.5 -245.5t-22.5 -173.5q0 -13 7 -20t17 -7q11 0 24.5 4.5t22.5 9.5l-9 -69q-13 -8 -33 -14t-44 -6q-76 0 -76 75q-69 -75 -165 -75q-79 0 -126.5 50.5t-47.5 149.5q0 104 32.5 179t87.5 113.5t122 38.5
q50 0 87 -20.5zM172 368.5q-37 -77.5 -37 -175.5q0 -69 28 -98.5t81 -29.5q80 0 121 71t41 182q0 68 -28.5 98t-80.5 30q-88 0 -125 -77.5zM483 680q-30 -29 -77 -48t-99 -19q-48 0 -88.5 17t-64 44t-23.5 55q0 6 1 8h67q5 -27 38 -44.5t80 -17.5q46 0 83 17.5t49 44.5h68
q-4 -28 -34 -57z" />
    <glyph glyph-name="Aogonek" unicode="&#x104;" horiz-adv-x="650" 
d="M607 0h-106l-37 149h-328l-78 -149h-94l364 686h108zM357 568l-173 -330h259l-80 330h-6zM544.5 -28q-17.5 -19 -17.5 -37q0 -16 12 -23.5t28 -7.5t34 4.5t35 9.5l8 -37q-43 -24 -93 -24q-37 0 -62 14.5t-25 45.5q0 26 17.5 45.5t47.5 37.5h54q-21 -9 -38.5 -28z" />
    <glyph glyph-name="aogonek" unicode="&#x105;" horiz-adv-x="607" 
d="M565 -119q-43 -24 -93 -24q-37 0 -62 14.5t-25 45.5q0 42 52 75q-56 9 -56 73q-69 -75 -165 -75q-79 0 -126.5 50.5t-47.5 149.5q0 104 32.5 179t87.5 113.5t122 38.5q50 0 87 -20.5t56 -54.5h7l31 65h65q-18 -114 -35.5 -245.5t-22.5 -173.5q0 -13 7 -20t17 -7
q11 0 24.5 4.5t22.5 9.5l-9 -69q-17 -11 -41 -16q-19 -11 -32 -27.5t-13 -31.5q0 -16 12 -23.5t28 -7.5t34 4.5t35 9.5zM365 136q41 71 41 182q0 68 -28.5 98t-80.5 30q-88 0 -125 -77.5t-37 -175.5q0 -69 28 -98.5t81 -29.5q80 0 121 71z" />
    <glyph glyph-name="Cacute" unicode="&#x106;" horiz-adv-x="662" 
d="M567.5 640q63.5 -56 63.5 -163q0 -29 -4 -54h-98q3 23 3 43q0 71 -38.5 106t-105.5 35q-86 0 -142.5 -53.5t-72.5 -165.5q-17 -116 -17 -147q0 -83 41 -122.5t116 -39.5q78 0 131 45.5t66 136.5h94q-20 -136 -100 -203.5t-203 -67.5q-112 0 -178 61.5t-66 180.5
q0 36 18 156q22 154 106.5 231t218.5 77q104 0 167.5 -56zM523 891l-136 -141h-69l115 145h90v-4z" />
    <glyph glyph-name="cacute" unicode="&#x107;" horiz-adv-x="546" 
d="M451.5 474q50.5 -47 50.5 -128q0 -16 -3 -36h-93q2 18 2 27q0 49 -27 79t-80 30q-90 0 -128 -75.5t-38 -178.5q0 -64 30.5 -95.5t86.5 -31.5q61 0 97 36.5t45 98.5h90q-14 -101 -77 -155.5t-164 -54.5h-8q-88 0 -140.5 53t-52.5 148q0 91 29 166t89 119.5t149 44.5h8
q84 0 134.5 -47zM445 716l-136 -141h-69l115 145h90v-4z" />
    <glyph glyph-name="Ccaron" unicode="&#x10c;" horiz-adv-x="662" 
d="M567.5 640q63.5 -56 63.5 -163q0 -29 -4 -54h-98q3 23 3 43q0 71 -38.5 106t-105.5 35q-86 0 -142.5 -53.5t-72.5 -165.5q-17 -116 -17 -147q0 -83 41 -122.5t116 -39.5q78 0 131 45.5t66 136.5h94q-20 -136 -100 -203.5t-203 -67.5q-112 0 -178 61.5t-66 180.5
q0 36 18 156q22 154 106.5 231t218.5 77q104 0 167.5 -56zM419 750h-78l-115 145h80l82 -89l107 89h80z" />
    <glyph glyph-name="ccaron" unicode="&#x10d;" horiz-adv-x="546" 
d="M451.5 474q50.5 -47 50.5 -128q0 -16 -3 -36h-93q2 18 2 27q0 49 -27 79t-80 30q-90 0 -128 -75.5t-38 -178.5q0 -64 30.5 -95.5t86.5 -31.5q61 0 97 36.5t45 98.5h90q-14 -101 -77 -155.5t-164 -54.5h-8q-88 0 -140.5 53t-52.5 148q0 91 29 166t89 119.5t149 44.5h8
q84 0 134.5 -47zM341 575h-78l-115 145h80l82 -89l107 89h80z" />
    <glyph glyph-name="Dcaron" unicode="&#x10e;" horiz-adv-x="677" 
d="M563.5 623.5q67.5 -62.5 67.5 -181.5q0 -23 -13 -134q-18 -153 -104 -230.5t-225 -77.5h-238l97 686h238q110 0 177.5 -62.5zM233 597l-71 -508h140q85 0 143.5 54t73.5 165q13 105 13 124q0 84 -42.5 124.5t-116.5 40.5h-140zM377 750h-78l-115 145h80l82 -89l107 89h80
z" />
    <glyph glyph-name="dcaron" unicode="&#x10f;" horiz-adv-x="612" 
d="M539 576q-8 -56 -37.5 -260t-29.5 -224q0 -13 7 -20t17 -7q11 0 24.5 4.5t22.5 9.5l-9 -69q-13 -8 -33 -14t-44 -6q-76 0 -76 75q-69 -75 -165 -75q-79 0 -126.5 50.5t-47.5 149.5q0 104 32.5 179t87.5 113.5t122 38.5q50 0 87 -20.5t56 -54.5l39 274h94zM172 368.5
q-37 -77.5 -37 -175.5q0 -69 28 -98.5t81 -29.5q80 0 121 71t41 182q0 68 -28.5 98t-80.5 30q-88 0 -125 -77.5zM695 601l-56 -150h-52l44 124h-41l16 111h101z" />
    <glyph glyph-name="Dcroat" unicode="&#x110;" horiz-adv-x="682" 
d="M568.5 623.5q67.5 -62.5 67.5 -181.5q0 -23 -13 -134q-18 -153 -104 -230.5t-225 -77.5h-238l44 310h-90l8 65h91l44 311h238q110 0 177.5 -62.5zM238 597l-31 -222h145l-9 -65h-145l-31 -221h140q85 0 143.5 54t73.5 165q13 105 13 124q0 84 -42.5 124.5t-116.5 40.5
h-140z" />
    <glyph glyph-name="dcroat" unicode="&#x111;" horiz-adv-x="612" 
d="M541 590l-14 -96q-55 -381 -55 -402q0 -13 7 -20t17 -7q11 0 24.5 4.5t22.5 9.5l-9 -69q-13 -8 -33 -14t-44 -6q-76 0 -76 75q-69 -75 -165 -75q-79 0 -126.5 50.5t-47.5 149.5q0 104 32.5 179t87.5 113.5t122 38.5q50 0 87 -20.5t56 -54.5l20 144h-200l13 74h198l8 56
h94l-8 -56h90l-14 -74h-87zM365 136q41 71 41 182q0 68 -28.5 98t-80.5 30q-88 0 -125 -77.5t-37 -175.5q0 -69 28 -98.5t81 -29.5q80 0 121 71z" />
    <glyph glyph-name="Emacron" unicode="&#x112;" horiz-adv-x="592" 
d="M572 597h-339l-28 -202h307l-13 -89h-307l-30 -217h345v-89h-456l97 686h450zM529 837h-318l11 74h318z" />
    <glyph glyph-name="emacron" unicode="&#x113;" horiz-adv-x="556" 
d="M456.5 474q50.5 -47 50.5 -130v-11q0 -21 -13 -99h-357q-2 -22 -2 -32q0 -63 29 -100t92 -37q73 0 104 40t39 85h89q-13 -94 -76.5 -147t-165.5 -53h-4q-92 0 -146.5 53t-54.5 150q0 89 30.5 164t92 119.5t150.5 44.5h7q85 0 135.5 -47zM207.5 411q-40.5 -35 -57.5 -104
h262q3 20 3 36q0 50 -30 76.5t-79 26.5q-58 0 -98.5 -35zM481 662h-318l11 74h318z" />
    <glyph glyph-name="Edotaccent" unicode="&#x116;" horiz-adv-x="592" 
d="M572 597h-339l-28 -202h307l-13 -89h-307l-30 -217h345v-89h-456l97 686h450zM426 894q16 -17 16 -42q0 -30 -22.5 -51.5t-55.5 -21.5q-23 0 -39 15.5t-16 38.5q0 33 20.5 55.5t54.5 22.5q26 0 42 -17z" />
    <glyph glyph-name="edotaccent" unicode="&#x117;" horiz-adv-x="556" 
d="M456.5 474q50.5 -47 50.5 -130v-11q0 -21 -13 -99h-357q-2 -22 -2 -32q0 -63 29 -100t92 -37q73 0 104 40t39 85h89q-13 -94 -76.5 -147t-165.5 -53h-4q-92 0 -146.5 53t-54.5 150q0 89 30.5 164t92 119.5t150.5 44.5h7q85 0 135.5 -47zM207.5 411q-40.5 -35 -57.5 -104
h262q3 20 3 36q0 50 -30 76.5t-79 26.5q-58 0 -98.5 -35zM378 719q16 -17 16 -42q0 -30 -22.5 -51.5t-55.5 -21.5q-23 0 -39 15.5t-16 38.5q0 33 20.5 55.5t54.5 22.5q26 0 42 -17z" />
    <glyph glyph-name="Eogonek" unicode="&#x118;" horiz-adv-x="592" 
d="M572 597h-339l-28 -202h307l-13 -89h-307l-30 -217h345v-89h-456l97 686h450zM462.5 -28q-17.5 -19 -17.5 -37q0 -16 12 -23.5t28 -7.5t34 4.5t35 9.5l8 -37q-43 -24 -93 -24q-37 0 -62 14.5t-25 45.5q0 26 17.5 45.5t47.5 37.5h54q-21 -9 -38.5 -28z" />
    <glyph glyph-name="eogonek" unicode="&#x119;" horiz-adv-x="556" 
d="M456.5 474q50.5 -47 50.5 -130v-11q0 -21 -13 -99h-357q-2 -22 -2 -32q0 -63 29 -100t92 -37q73 0 104 40t39 85h89q-10 -73 -52 -122.5t-110 -67.5h22q-21 -9 -38.5 -28t-17.5 -37q0 -16 12 -23.5t28 -7.5t34 4.5t35 9.5l8 -37q-43 -24 -93 -24q-37 0 -62 14.5t-25 45.5
q0 42 52 75q-22 -2 -35 -2h-4q-92 0 -146.5 53t-54.5 150q0 89 30.5 164t92 119.5t150.5 44.5h7q85 0 135.5 -47zM415 343q0 50 -30 76.5t-79 26.5q-58 0 -98.5 -35t-57.5 -104h262q3 20 3 36z" />
    <glyph glyph-name="Ecaron" unicode="&#x11a;" horiz-adv-x="592" 
d="M572 597h-339l-28 -202h307l-13 -89h-307l-30 -217h345v-89h-456l97 686h450zM394 750h-78l-115 145h80l82 -89l107 89h80z" />
    <glyph glyph-name="ecaron" unicode="&#x11b;" horiz-adv-x="556" 
d="M456.5 474q50.5 -47 50.5 -130v-11q0 -21 -13 -99h-357q-2 -22 -2 -32q0 -63 29 -100t92 -37q73 0 104 40t39 85h89q-13 -94 -76.5 -147t-165.5 -53h-4q-92 0 -146.5 53t-54.5 150q0 89 30.5 164t92 119.5t150.5 44.5h7q85 0 135.5 -47zM207.5 411q-40.5 -35 -57.5 -104
h262q3 20 3 36q0 50 -30 76.5t-79 26.5q-58 0 -98.5 -35zM346 575h-78l-115 145h80l82 -89l107 89h80z" />
    <glyph glyph-name="Gbreve" unicode="&#x11e;" horiz-adv-x="675" 
d="M566.5 642.5q64.5 -53.5 64.5 -153.5q0 -21 -3 -44h-98q2 22 2 33q0 65 -39 97t-105 32q-86 0 -142.5 -53.5t-72.5 -165.5q-17 -116 -17 -147q0 -83 41 -122.5t116 -39.5q87 0 132.5 43t60.5 139l2 13h-194l12 88h290l-33 -234q-12 -68 -12 -128h-58q-7 18 -8 82
q-39 -45 -91 -68.5t-113 -23.5q-112 0 -178 61.5t-66 180.5q0 36 18 156q22 154 105.5 231t219.5 77q102 0 166.5 -53.5zM567 855q-30 -29 -77 -48t-99 -19q-48 0 -88.5 17t-64 44t-23.5 55q0 6 1 8h67q5 -27 38 -44.5t80 -17.5q46 0 83 17.5t49 44.5h68q-4 -28 -34 -57z
" />
    <glyph glyph-name="gbreve" unicode="&#x11f;" horiz-adv-x="583" 
d="M451 430l45 81h36l-67 -477q-13 -99 -75 -159.5t-177 -60.5q-94 0 -143 47t-49 120h93q0 -42 29 -67t80 -25q59 0 98 36t47 90l11 80q-28 -34 -70 -54.5t-94 -20.5q-76 0 -123.5 49t-47.5 139q0 83 28 154.5t84 115t136 43.5q116 0 159 -91zM185.5 393
q-45.5 -53 -45.5 -176q0 -122 110 -122q55 0 91 34t52 86.5t16 110.5q0 65 -28 92.5t-81 27.5q-69 0 -114.5 -53zM471 680q-30 -29 -77 -48t-99 -19q-48 0 -88.5 17t-64 44t-23.5 55q0 6 1 8h67q5 -27 38 -44.5t80 -17.5q46 0 83 17.5t49 44.5h68q-4 -28 -34 -57z" />
    <glyph glyph-name="Gcommaaccent" unicode="&#x122;" horiz-adv-x="675" 
d="M566.5 642.5q64.5 -53.5 64.5 -153.5q0 -21 -3 -44h-98q2 22 2 33q0 65 -39 97t-105 32q-86 0 -142.5 -53.5t-72.5 -165.5q-17 -116 -17 -147q0 -83 41 -122.5t116 -39.5q87 0 132.5 43t60.5 139l2 13h-194l12 88h290l-33 -234q-12 -68 -12 -128h-58q-7 18 -8 82
q-39 -45 -91 -68.5t-113 -23.5q-112 0 -178 61.5t-66 180.5q0 36 18 156q22 154 105.5 231t219.5 77q102 0 166.5 -53.5zM370 -125l-47 -125h-53l36 99h-41l16 111h101z" />
    <glyph glyph-name="gcommaaccent" unicode="&#x123;" horiz-adv-x="583" 
d="M280 666l47 125h53l-36 -99h41l-16 -111h-101zM451 430l45 81h36l-67 -477q-13 -99 -75 -159.5t-177 -60.5q-94 0 -143 47t-49 120h93q0 -42 29 -67t80 -25q59 0 98 36t47 90l11 80q-28 -34 -70 -54.5t-94 -20.5q-76 0 -123.5 49t-47.5 139q0 83 28 154.5t84 115
t136 43.5q116 0 159 -91zM185.5 393q-45.5 -53 -45.5 -176q0 -122 110 -122q55 0 91 34t52 86.5t16 110.5q0 65 -28 92.5t-81 27.5q-69 0 -114.5 -53z" />
    <glyph glyph-name="Imacron" unicode="&#x12a;" horiz-adv-x="365" 
d="M354 597h-80l-71 -508h80l-13 -89h-258l13 89h80l71 508h-80l13 89h258zM411 837h-318l11 74h318z" />
    <glyph glyph-name="imacron" unicode="&#x12b;" horiz-adv-x="261" 
d="M137 0h-94l71 511h94zM334 662h-318l11 74h318z" />
    <glyph glyph-name="Iogonek" unicode="&#x12e;" horiz-adv-x="365" 
d="M354 597h-80l-71 -508h80l-13 -89h-258l13 89h80l71 508h-80l13 89h258zM217.5 -28q-17.5 -19 -17.5 -37q0 -16 12 -23.5t28 -7.5t34 4.5t35 9.5l8 -37q-43 -24 -93 -24q-37 0 -62 14.5t-25 45.5q0 26 17.5 45.5t47.5 37.5h54q-21 -9 -38.5 -28z" />
    <glyph glyph-name="iogonek" unicode="&#x12f;" horiz-adv-x="261" 
d="M239 720l-12 -87h-98l12 87h98zM94.5 -28q-17.5 -19 -17.5 -37q0 -16 12 -23.5t28 -7.5t34 4.5t35 9.5l8 -37q-43 -24 -93 -24q-37 0 -62 14.5t-25 45.5q0 26 17.5 45.5t47.5 37.5h-36l71 511h94l-71 -511h-4q-21 -9 -38.5 -28z" />
    <glyph glyph-name="Idotaccent" unicode="&#x130;" horiz-adv-x="365" 
d="M354 597h-80l-71 -508h80l-13 -89h-258l13 89h80l71 508h-80l13 89h258zM308 894q16 -17 16 -42q0 -30 -22.5 -51.5t-55.5 -21.5q-23 0 -39 15.5t-16 38.5q0 33 20.5 55.5t54.5 22.5q26 0 42 -17z" />
    <glyph glyph-name="dotlessi" unicode="&#x131;" horiz-adv-x="261" 
d="M137 0h-94l71 511h94z" />
    <glyph glyph-name="Kcommaaccent" unicode="&#x136;" horiz-adv-x="621" 
d="M362 383l206 -383h-114l-164 308l-112 -102l-29 -206h-98l97 686h98l-50 -357l348 357h113zM343 -125l-47 -125h-53l36 99h-41l16 111h101z" />
    <glyph glyph-name="kcommaaccent" unicode="&#x137;" horiz-adv-x="534" 
d="M168 226l268 285h103l-232 -248l173 -263h-114l-126 190l-89 -80l-15 -110h-94l101 720h94zM299 -125l-47 -125h-53l36 99h-41l16 111h101z" />
    <glyph glyph-name="Lacute" unicode="&#x139;" horiz-adv-x="532" 
d="M162 89h315v-89h-426l97 686h98zM339 891l-136 -141h-69l115 145h90v-4z" />
    <glyph glyph-name="lacute" unicode="&#x13a;" horiz-adv-x="268" 
d="M140 0h-94l101 720h94zM339 891l-136 -141h-69l115 145h90v-4z" />
    <glyph glyph-name="Lcommaaccent" unicode="&#x13b;" horiz-adv-x="532" 
d="M162 89h315v-89h-426l97 686h98zM298 -125l-47 -125h-53l36 99h-41l16 111h101z" />
    <glyph glyph-name="lcommaaccent" unicode="&#x13c;" horiz-adv-x="268" 
d="M140 0h-94l101 720h94zM125 -125l-47 -125h-53l36 99h-41l16 111h101z" />
    <glyph glyph-name="Lcaron" unicode="&#x13d;" horiz-adv-x="532" 
d="M162 89h315v-89h-426l97 686h98zM555 601l-56 -150h-52l44 124h-41l16 111h101z" />
    <glyph glyph-name="lcaron" unicode="&#x13e;" horiz-adv-x="268" 
d="M140 0h-94l101 720h94zM381 601l-56 -150h-52l44 124h-41l16 111h101z" />
    <glyph glyph-name="Lslash" unicode="&#x141;" horiz-adv-x="534" 
d="M215 445l149 72l-10 -71l-149 -72l-40 -285h315v-89h-426l46 324l-67 -31l10 71l67 31l41 291h98z" />
    <glyph glyph-name="lslash" unicode="&#x142;" horiz-adv-x="297" 
d="M216 440l88 41l-10 -70l-88 -41l-52 -370h-94l45 322l-87 -41l9 70l88 41l46 328h94z" />
    <glyph glyph-name="Nacute" unicode="&#x143;" horiz-adv-x="694" 
d="M561 0h-83l-264 502l-3 -1l-71 -501h-89l97 686h86l262 -496l3 1l70 495h89zM559 891l-136 -141h-69l115 145h90v-4z" />
    <glyph glyph-name="nacute" unicode="&#x144;" horiz-adv-x="593" 
d="M482 486q43 -35 43 -106q0 -22 -26 -202l-25 -178h-94l24 167l12 89q12 86 12 100q0 46 -24.5 68t-68.5 22q-35 0 -69 -19t-58 -51.5t-29 -71.5l-43 -304h-94l72 511h70v-75q78 85 183 85q72 0 115 -35zM479 716l-136 -141h-69l115 145h90v-4z" />
    <glyph glyph-name="Ncommaaccent" unicode="&#x145;" horiz-adv-x="694" 
d="M561 0h-83l-264 502l-3 -1l-71 -501h-89l97 686h86l262 -496l3 1l70 495h89zM379 -125l-47 -125h-53l36 99h-41l16 111h101z" />
    <glyph glyph-name="ncommaaccent" unicode="&#x146;" horiz-adv-x="593" 
d="M482 486q43 -35 43 -106q0 -22 -26 -202l-25 -178h-94l24 167l12 89q12 86 12 100q0 46 -24.5 68t-68.5 22q-35 0 -69 -19t-58 -51.5t-29 -71.5l-43 -304h-94l72 511h70v-75q78 85 183 85q72 0 115 -35zM290 -125l-47 -125h-53l36 99h-41l16 111h101z" />
    <glyph glyph-name="Ncaron" unicode="&#x147;" horiz-adv-x="694" 
d="M561 0h-83l-264 502l-3 -1l-71 -501h-89l97 686h86l262 -496l3 1l70 495h89zM455 750h-78l-115 145h80l82 -89l107 89h80z" />
    <glyph glyph-name="ncaron" unicode="&#x148;" horiz-adv-x="593" 
d="M482 486q43 -35 43 -106q0 -22 -26 -202l-25 -178h-94l24 167l12 89q12 86 12 100q0 46 -24.5 68t-68.5 22q-35 0 -69 -19t-58 -51.5t-29 -71.5l-43 -304h-94l72 511h70v-75q78 85 183 85q72 0 115 -35zM375 575h-78l-115 145h80l82 -89l107 89h80z" />
    <glyph glyph-name="Omacron" unicode="&#x14c;" horiz-adv-x="690" 
d="M579.5 633q67.5 -63 67.5 -183q0 -33 -17 -152q-21 -152 -108 -230t-219 -78q-110 0 -178 63t-68 182q-1 14 1 31t6 44l11 78q20 151 108 229.5t219 78.5q110 0 177.5 -63zM246 553.5q-57 -53.5 -73 -165.5q-17 -125 -17 -144q0 -84 42 -124.5t117 -40.5q85 0 142.5 53.5
t74.5 165.5q17 115 17 144q0 84 -42.5 124.5t-116.5 40.5q-87 0 -144 -53.5zM568 837h-318l11 74h318z" />
    <glyph glyph-name="omacron" unicode="&#x14d;" horiz-adv-x="576" 
d="M467.5 470.5q56.5 -50.5 56.5 -146.5q0 -90 -27 -165t-89.5 -122t-162.5 -47q-91 0 -147.5 50.5t-56.5 146.5q0 89 27 164.5t89.5 122.5t162.5 47q91 0 147.5 -50.5zM176.5 372.5q-40.5 -73.5 -40.5 -172.5q0 -68 33 -101.5t87 -33.5q61 0 99.5 36.5t55.5 92t17 116.5
q0 69 -32.5 102.5t-86.5 33.5q-92 0 -132.5 -73.5zM511 662h-318l11 74h318z" />
    <glyph glyph-name="Ohungarumlaut" unicode="&#x150;" horiz-adv-x="690" 
d="M579.5 633q67.5 -63 67.5 -183q0 -33 -17 -152q-21 -152 -108 -230t-219 -78q-110 0 -178 63t-68 182q-1 14 1 31t6 44l11 78q20 151 108 229.5t219 78.5q110 0 177.5 -63zM246 553.5q-57 -53.5 -73 -165.5q-17 -125 -17 -144q0 -84 42 -124.5t117 -40.5q85 0 142.5 53.5
t74.5 165.5q17 115 17 144q0 84 -42.5 124.5t-116.5 40.5q-87 0 -144 -53.5zM470 890l-135 -140h-70l116 145h89v-5zM625 890l-135 -140h-70l115 145h90v-5z" />
    <glyph glyph-name="ohungarumlaut" unicode="&#x151;" horiz-adv-x="576" 
d="M467.5 470.5q56.5 -50.5 56.5 -146.5q0 -90 -27 -165t-89.5 -122t-162.5 -47q-91 0 -147.5 50.5t-56.5 146.5q0 89 27 164.5t89.5 122.5t162.5 47q91 0 147.5 -50.5zM176.5 372.5q-40.5 -73.5 -40.5 -172.5q0 -68 33 -101.5t87 -33.5q61 0 99.5 36.5t55.5 92t17 116.5
q0 69 -32.5 102.5t-86.5 33.5q-92 0 -132.5 -73.5zM413 715l-135 -140h-70l116 145h89v-5zM568 715l-135 -140h-70l115 145h90v-5z" />
    <glyph glyph-name="OE" unicode="&#x152;" horiz-adv-x="1031" 
d="M579 633l8 53h450l-26 -89h-339l-28 -202h307l-13 -89h-307l-30 -217h345v-89h-456l6 47q-77 -57 -193 -57q-110 0 -178 63t-68 182q-1 14 1 31t6 44l11 78q20 151 108 229.5t219 78.5q113 0 177 -63zM246 553.5q-57 -53.5 -73 -165.5q-17 -125 -17 -144q0 -84 42 -124.5
t117 -40.5q85 0 142.5 53.5t74.5 165.5q17 115 17 144q0 84 -42.5 124.5t-116.5 40.5q-87 0 -144 -53.5z" />
    <glyph glyph-name="oe" unicode="&#x153;" horiz-adv-x="933" 
d="M833.5 474q50.5 -47 50.5 -130v-11q0 -21 -13 -99h-357q-2 -22 -2 -32q0 -63 29 -100t92 -37q73 0 104 40t39 85h89q-13 -94 -76.5 -147t-165.5 -53h-4q-59 0 -102.5 21.5t-68.5 63.5q-72 -85 -203 -85q-91 0 -147.5 50.5t-56.5 146.5q0 89 27 164.5t89.5 122.5t162.5 47
q59 0 104.5 -21.5t71.5 -63.5q35 40 84 62.5t111 22.5h7q85 0 135.5 -47zM180.5 376q-36.5 -70 -44.5 -176q0 -68 33 -101.5t87 -33.5q61 0 99.5 36.5t55.5 92t17 116.5q0 69 -32.5 102.5t-86.5 33.5q-92 0 -128.5 -70zM584.5 411q-40.5 -35 -57.5 -104h262q3 20 3 36
q0 50 -30 76.5t-79 26.5q-58 0 -98.5 -35z" />
    <glyph glyph-name="Racute" unicode="&#x154;" horiz-adv-x="670" 
d="M572.5 649.5q52.5 -36.5 52.5 -106.5q0 -42 -17.5 -82.5t-51 -69.5t-79.5 -37v-5q30 -13 58 -46t28 -101q0 -17 -4 -55q-4 -32 -4 -43q0 -34 9.5 -50t28.5 -23l-4 -28q-22 -8 -53 -8q-38 0 -60 19t-22 71q0 17 4 53q3 23 3 35q0 68 -28.5 98.5t-67.5 30.5h-174l-42 -302
h-98l96 686h292q81 0 133.5 -36.5zM233 597l-29 -206h195q30 0 59 16t47 43.5t18 60.5q0 39 -25.5 62.5t-69.5 23.5h-195zM507 891l-136 -141h-69l115 145h90v-4z" />
    <glyph glyph-name="racute" unicode="&#x155;" horiz-adv-x="489" 
d="M442.5 484.5q33.5 -36.5 33.5 -95.5q0 -15 -4 -38.5t-7 -27.5h-83q4 27 4 35q0 33 -21.5 60.5t-63.5 27.5q-53 0 -83.5 -42t-38.5 -99l-43 -305h-94l72 511h70v-76q4 10 22 30t54 38t88 18q61 0 94.5 -36.5zM327 716l-136 -141h-69l115 145h90v-4z" />
    <glyph glyph-name="Rcommaaccent" unicode="&#x156;" horiz-adv-x="670" 
d="M572.5 649.5q52.5 -36.5 52.5 -106.5q0 -42 -17.5 -82.5t-51 -69.5t-79.5 -37v-5q30 -13 58 -46t28 -101q0 -17 -4 -55q-4 -32 -4 -43q0 -34 9.5 -50t28.5 -23l-4 -28q-22 -8 -53 -8q-38 0 -60 19t-22 71q0 17 4 53q3 23 3 35q0 68 -28.5 98.5t-67.5 30.5h-174l-42 -302
h-98l96 686h292q81 0 133.5 -36.5zM233 597l-29 -206h195q30 0 59 16t47 43.5t18 60.5q0 39 -25.5 62.5t-69.5 23.5h-195zM367 -125l-47 -125h-53l36 99h-41l16 111h101z" />
    <glyph glyph-name="rcommaaccent" unicode="&#x157;" horiz-adv-x="489" 
d="M442.5 484.5q33.5 -36.5 33.5 -95.5q0 -15 -4 -38.5t-7 -27.5h-83q4 27 4 35q0 33 -21.5 60.5t-63.5 27.5q-53 0 -83.5 -42t-38.5 -99l-43 -305h-94l72 511h70v-76q4 10 22 30t54 38t88 18q61 0 94.5 -36.5zM121 -125l-47 -125h-53l36 99h-41l16 111h101z" />
    <glyph glyph-name="Rcaron" unicode="&#x158;" horiz-adv-x="670" 
d="M572.5 649.5q52.5 -36.5 52.5 -106.5q0 -42 -17.5 -82.5t-51 -69.5t-79.5 -37v-5q30 -13 58 -46t28 -101q0 -17 -4 -55q-4 -32 -4 -43q0 -34 9.5 -50t28.5 -23l-4 -28q-22 -8 -53 -8q-38 0 -60 19t-22 71q0 17 4 53q3 23 3 35q0 68 -28.5 98.5t-67.5 30.5h-174l-42 -302
h-98l96 686h292q81 0 133.5 -36.5zM233 597l-29 -206h195q30 0 59 16t47 43.5t18 60.5q0 39 -25.5 62.5t-69.5 23.5h-195zM403 750h-78l-115 145h80l82 -89l107 89h80z" />
    <glyph glyph-name="rcaron" unicode="&#x159;" horiz-adv-x="489" 
d="M442.5 484.5q33.5 -36.5 33.5 -95.5q0 -15 -4 -38.5t-7 -27.5h-83q4 27 4 35q0 33 -21.5 60.5t-63.5 27.5q-53 0 -83.5 -42t-38.5 -99l-43 -305h-94l72 511h70v-76q4 10 22 30t54 38t88 18q61 0 94.5 -36.5zM223 575h-78l-115 145h80l82 -89l107 89h80z" />
    <glyph glyph-name="Sacute" unicode="&#x15a;" horiz-adv-x="629" 
d="M528.5 656.5q59.5 -39.5 59.5 -120.5q0 -21 -4 -44h-98q4 20 4 28q0 42 -35 64.5t-94 22.5q-72 0 -118 -26t-46 -77q0 -30 20 -49.5t50 -30.5t82 -25q69 -18 111.5 -36t73 -54.5t30.5 -97.5q0 -116 -78.5 -168.5t-214.5 -52.5q-106 0 -170.5 41t-64.5 129q0 14 2 30t5 25
h98q-3 -3 -4.5 -17t-1.5 -23q0 -48 38.5 -72t104.5 -24q86 0 135.5 31.5t49.5 90.5q0 32 -20 52t-49.5 31t-83.5 26q-68 18 -110.5 36t-72.5 55t-30 98q0 97 76 147t198 50q98 0 157.5 -39.5zM507 891l-136 -141h-69l115 145h90v-4z" />
    <glyph glyph-name="sacute" unicode="&#x15b;" horiz-adv-x="536" 
d="M439.5 486q47.5 -35 47.5 -88q0 -22 -4 -34h-93q0 5 1 10t1 9q0 28 -24.5 45.5t-79.5 17.5q-68 0 -95 -23.5t-27 -51.5q0 -29 29 -42t92 -26q58 -12 94 -24t61.5 -38.5t25.5 -72.5q0 -94 -66.5 -136t-175.5 -42h-15q-93 0 -140.5 37.5t-47.5 93.5q0 17 2.5 27t2.5 12h93
l-2 -16v-7q0 -36 33 -54t87 -18q57 0 94.5 21.5t37.5 60.5q0 34 -31 48.5t-96 27.5q-57 12 -91.5 23.5t-59 37.5t-24.5 71q0 78 61 122t172 44h9q81 0 128.5 -35zM420 716l-136 -141h-69l115 145h90v-4z" />
    <glyph glyph-name="Scedilla" unicode="&#x15e;" horiz-adv-x="629" 
d="M528.5 656.5q59.5 -39.5 59.5 -120.5q0 -21 -4 -44h-98q4 20 4 28q0 42 -35 64.5t-94 22.5q-72 0 -118 -26t-46 -77q0 -30 20 -49.5t50 -30.5t82 -25q69 -18 111.5 -36t73 -54.5t30.5 -97.5q0 -116 -78.5 -168.5t-214.5 -52.5q-106 0 -170.5 41t-64.5 129q0 14 2 30t5 25
h98q-3 -3 -4.5 -17t-1.5 -23q0 -48 38.5 -72t104.5 -24q86 0 135.5 31.5t49.5 90.5q0 32 -20 52t-49.5 31t-83.5 26q-68 18 -110.5 36t-72.5 55t-30 98q0 97 76 147t198 50q98 0 157.5 -39.5zM396 -90q0 -57 -41 -82t-88 -25q-55 0 -92 22l16 49q36 -20 79 -20q26 0 44.5 13
t18.5 38q0 17 -12.5 26t-33.5 9h-21l6 43h24q100 0 100 -73z" />
    <glyph glyph-name="scedilla" unicode="&#x15f;" horiz-adv-x="536" 
d="M439.5 486q47.5 -35 47.5 -88q0 -22 -4 -34h-93q0 5 1 10t1 9q0 28 -24.5 45.5t-79.5 17.5q-68 0 -95 -23.5t-27 -51.5q0 -29 29 -42t92 -26q58 -12 94 -24t61.5 -38.5t25.5 -72.5q0 -94 -66.5 -136t-175.5 -42h-15q-93 0 -140.5 37.5t-47.5 93.5q0 17 2.5 27t2.5 12h93
l-2 -16v-7q0 -36 33 -54t87 -18q57 0 94.5 21.5t37.5 60.5q0 34 -31 48.5t-96 27.5q-57 12 -91.5 23.5t-59 37.5t-24.5 71q0 78 61 122t172 44h9q81 0 128.5 -35zM379 -90q0 -57 -41 -82t-88 -25q-55 0 -92 22l16 49q36 -20 79 -20q26 0 44.5 13t18.5 38q0 17 -12.5 26
t-33.5 9h-21l6 43h24q100 0 100 -73z" />
    <glyph glyph-name="Scaron" unicode="&#x160;" horiz-adv-x="629" 
d="M417 750h-78l-115 145h80l82 -89l107 89h80zM528.5 656.5q59.5 -39.5 59.5 -120.5q0 -21 -4 -44h-98q4 20 4 28q0 42 -35 64.5t-94 22.5q-72 0 -118 -26t-46 -77q0 -30 20 -49.5t50 -30.5t82 -25q69 -18 111.5 -36t73 -54.5t30.5 -97.5q0 -116 -78.5 -168.5t-214.5 -52.5
q-106 0 -170.5 41t-64.5 129q0 14 2 30t5 25h98q-3 -3 -4.5 -17t-1.5 -23q0 -48 38.5 -72t104.5 -24q86 0 135.5 31.5t49.5 90.5q0 32 -20 52t-49.5 31t-83.5 26q-68 18 -110.5 36t-72.5 55t-30 98q0 97 76 147t198 50q98 0 157.5 -39.5z" />
    <glyph glyph-name="scaron" unicode="&#x161;" horiz-adv-x="536" 
d="M346 575h-78l-115 145h80l82 -89l107 89h80zM439.5 486q47.5 -35 47.5 -88q0 -22 -4 -34h-93q0 5 1 10t1 9q0 28 -24.5 45.5t-79.5 17.5q-68 0 -95 -23.5t-27 -51.5q0 -29 29 -42t92 -26q58 -12 94 -24t61.5 -38.5t25.5 -72.5q0 -94 -66.5 -136t-175.5 -42h-15
q-93 0 -140.5 37.5t-47.5 93.5q0 17 2.5 27t2.5 12h93l-2 -16v-7q0 -36 33 -54t87 -18q57 0 94.5 21.5t37.5 60.5q0 34 -31 48.5t-96 27.5q-57 12 -91.5 23.5t-59 37.5t-24.5 71q0 78 61 122t172 44h9q81 0 128.5 -35z" />
    <glyph glyph-name="uni0162" unicode="&#x162;" horiz-adv-x="575" 
d="M594 597h-215l-84 -597h-98l84 597h-214l13 89h527zM357 -90q0 -57 -41 -82t-88 -25q-55 0 -92 22l16 49q36 -20 79 -20q26 0 44.5 13t18.5 38q0 17 -12.5 26t-33.5 9h-21l6 43h24q100 0 100 -73z" />
    <glyph glyph-name="uni0163" unicode="&#x163;" horiz-adv-x="344" 
d="M223 511h119l-11 -75h-119q-16 -101 -23 -153l-8 -58q-14 -98 -14 -113q0 -29 14 -39t36 -10q11 0 31 5t33 10l-10 -70q-17 -8 -41.5 -13t-46.5 -5q-57 0 -83.5 24.5t-26.5 78.5q0 25 14 128l8 60q6 49 23 155h-56l11 75h55l22 163h103zM283 -90q0 -57 -41 -82t-88 -25
q-55 0 -92 22l16 49q36 -20 79 -20q26 0 44.5 13t18.5 38q0 17 -12.5 26t-33.5 9h-21l6 43h24q100 0 100 -73z" />
    <glyph glyph-name="Tcaron" unicode="&#x164;" horiz-adv-x="575" 
d="M594 597h-215l-84 -597h-98l84 597h-214l13 89h527zM382 750h-78l-115 145h80l82 -89l107 89h80z" />
    <glyph glyph-name="tcaron" unicode="&#x165;" horiz-adv-x="344" 
d="M223 511h119l-11 -75h-119q-16 -101 -23 -153l-8 -58q-14 -98 -14 -113q0 -29 14 -39t36 -10q11 0 31 5t33 10l-10 -70q-17 -8 -41.5 -13t-46.5 -5q-57 0 -83.5 24.5t-26.5 78.5q0 25 14 128l8 60q6 49 23 155h-56l11 75h55l22 163h103zM472 601l-56 -150h-52l44 124h-41
l16 111h101z" />
    <glyph glyph-name="Umacron" unicode="&#x16a;" horiz-adv-x="682" 
d="M585 219q-15 -107 -87.5 -168t-192.5 -61h-13q-102 0 -160 51t-58 139q0 11 8 69t12 85l48 352h98l-44 -314l-14 -100l-6 -44q-3 -19 -3 -28q0 -54 36.5 -87.5t101.5 -33.5q72 0 119.5 39t56.5 103l65 465h98zM569 837h-318l11 74h318z" />
    <glyph glyph-name="umacron" unicode="&#x16b;" horiz-adv-x="617" 
d="M511 304q-30 -209 -29 -212q0 -13 7 -20t17 -7q11 0 24.5 4t22.5 10l-9 -69q-13 -8 -33 -14t-44 -6q-76 0 -76 74v10q-31 -35 -77 -59.5t-97 -24.5q-73 0 -116 35t-43 106q0 39 51 380h94l-24 -165q-25 -166 -24 -191q0 -90 93 -90q35 0 68.5 19t57.5 51.5t30 71.5
l43 304h94zM522 662h-318l11 74h318z" />
    <glyph glyph-name="Uring" unicode="&#x16e;" horiz-adv-x="682" 
d="M585 219q-15 -107 -87.5 -168t-192.5 -61h-13q-102 0 -160 51t-58 139q0 11 8 69t12 85l48 352h98l-44 -314l-14 -100l-6 -44q-3 -19 -3 -28q0 -54 36.5 -87.5t101.5 -33.5q72 0 119.5 39t56.5 103l65 465h98zM472 895.5q27 -26.5 27 -67.5q0 -29 -15.5 -54t-40.5 -39.5
t-53 -14.5q-42 0 -69 26t-27 68q0 46 33 77t76 31q42 0 69 -26.5zM357 862.5q-18 -18.5 -18 -45.5q0 -24 15 -40t39 -16t42.5 19t18.5 45q0 24 -15 40t-39 16q-25 0 -43 -18.5z" />
    <glyph glyph-name="uring" unicode="&#x16f;" horiz-adv-x="617" 
d="M511 304q-30 -209 -29 -212q0 -13 7 -20t17 -7q11 0 24.5 4t22.5 10l-9 -69q-13 -8 -33 -14t-44 -6q-76 0 -76 74v10q-31 -35 -77 -59.5t-97 -24.5q-73 0 -116 35t-43 106q0 39 51 380h94l-24 -165q-25 -166 -24 -191q0 -90 93 -90q35 0 68.5 19t57.5 51.5t30 71.5
l43 304h94zM425 720.5q27 -26.5 27 -67.5q0 -29 -15.5 -54t-40.5 -39.5t-53 -14.5q-42 0 -69 26t-27 68q0 46 33 77t76 31q42 0 69 -26.5zM310 687.5q-18 -18.5 -18 -45.5q0 -24 15 -40t39 -16t42.5 19t18.5 45q0 24 -15 40t-39 16q-25 0 -43 -18.5z" />
    <glyph glyph-name="Uhungarumlaut" unicode="&#x170;" horiz-adv-x="682" 
d="M585 219q-15 -107 -87.5 -168t-192.5 -61h-13q-102 0 -160 51t-58 139q0 11 8 69t12 85l48 352h98l-44 -314l-14 -100l-6 -44q-3 -19 -3 -28q0 -54 36.5 -87.5t101.5 -33.5q72 0 119.5 39t56.5 103l65 465h98zM471 890l-135 -140h-70l116 145h89v-5zM626 890l-135 -140
h-70l115 145h90v-5z" />
    <glyph glyph-name="uhungarumlaut" unicode="&#x171;" horiz-adv-x="617" 
d="M511 304q-30 -209 -29 -212q0 -13 7 -20t17 -7q11 0 24.5 4t22.5 10l-9 -69q-13 -8 -33 -14t-44 -6q-76 0 -76 74v10q-31 -35 -77 -59.5t-97 -24.5q-73 0 -116 35t-43 106q0 39 51 380h94l-24 -165q-25 -166 -24 -191q0 -90 93 -90q35 0 68.5 19t57.5 51.5t30 71.5
l43 304h94zM424 715l-135 -140h-70l116 145h89v-5zM579 715l-135 -140h-70l115 145h90v-5z" />
    <glyph glyph-name="Uogonek" unicode="&#x172;" horiz-adv-x="682" 
d="M650 686l-65 -467q-12 -85 -61.5 -142t-130.5 -77h29q-21 -9 -38.5 -28t-17.5 -37q0 -16 12 -23.5t28 -7.5t34 4.5t35 9.5l8 -37q-43 -24 -93 -24q-37 0 -62 14.5t-25 45.5q0 24 14.5 42t39.5 34q-24 -3 -52 -3h-13q-102 0 -160 51t-58 139q0 11 8 69t12 85l48 352h98
l-44 -314l-14 -100l-6 -44q-3 -19 -3 -28q0 -54 36.5 -87.5t101.5 -33.5q72 0 119.5 39t56.5 103l65 465h98z" />
    <glyph glyph-name="uogonek" unicode="&#x173;" horiz-adv-x="617" 
d="M584 -119q-43 -24 -93 -24q-37 0 -62 14.5t-25 45.5q0 41 50 74q-63 5 -63 73v10q-31 -35 -77 -59.5t-97 -24.5q-73 0 -116 35t-43 106q0 39 51 380h94l-24 -165q-25 -166 -24 -191q0 -90 93 -90q35 0 68.5 19t57.5 51.5t30 71.5l43 304h94l-30 -207q-30 -209 -29 -212
q0 -13 7 -20t17 -7q11 0 24.5 4t22.5 10l-9 -69q-11 -7 -21 -10q-21 -9 -38.5 -28t-17.5 -37q0 -16 12 -23.5t28 -7.5t34 4.5t35 9.5z" />
    <glyph glyph-name="Ydieresis" unicode="&#x178;" horiz-adv-x="570" 
d="M303 749h-90l13 98h90zM492 749h-91l13 98h91zM329 265l-38 -265h-98l38 265l-182 421h111l138 -319h4l226 319h101z" />
    <glyph glyph-name="Zacute" unicode="&#x179;" horiz-adv-x="595" 
d="M597 648l-444 -559h374l-13 -89h-523l6 38l443 559h-341l13 89h491zM500 891l-136 -141h-69l115 145h90v-4z" />
    <glyph glyph-name="zacute" unicode="&#x17a;" horiz-adv-x="463" 
d="M441 474l-306 -399h258l-10 -75h-387l5 38l305 398h-234l10 75h364zM404 716l-136 -141h-69l115 145h90v-4z" />
    <glyph glyph-name="Zdotaccent" unicode="&#x17b;" horiz-adv-x="595" 
d="M597 648l-444 -559h374l-13 -89h-523l6 38l443 559h-341l13 89h491zM428 894q16 -17 16 -42q0 -30 -22.5 -51.5t-55.5 -21.5q-23 0 -39 15.5t-16 38.5q0 33 20.5 55.5t54.5 22.5q26 0 42 -17z" />
    <glyph glyph-name="zdotaccent" unicode="&#x17c;" horiz-adv-x="463" 
d="M441 474l-306 -399h258l-10 -75h-387l5 38l305 398h-234l10 75h364zM332 719q16 -17 16 -42q0 -30 -22.5 -51.5t-55.5 -21.5q-23 0 -39 15.5t-16 38.5q0 33 20.5 55.5t54.5 22.5q26 0 42 -17z" />
    <glyph glyph-name="Zcaron" unicode="&#x17d;" horiz-adv-x="595" 
d="M395 750h-78l-115 145h80l82 -89l107 89h80zM597 648l-444 -559h374l-13 -89h-523l6 38l443 559h-341l13 89h491z" />
    <glyph glyph-name="zcaron" unicode="&#x17e;" horiz-adv-x="463" 
d="M295 575h-78l-115 145h80l82 -89l107 89h80zM441 474l-306 -399h258l-10 -75h-387l5 38l305 398h-234l10 75h364z" />
    <glyph glyph-name="florin" unicode="&#x192;" horiz-adv-x="340" 
d="M336 723q24 -5 38 -14l-9 -69q-11 5 -30 9.5t-30 4.5q-27 0 -43.5 -12.5t-22.5 -51.5l-12 -79h120l-9 -75h-120l-71 -494q-9 -64 -47 -95t-96 -31q-22 0 -46 5t-38 14l8 69q11 -5 30.5 -9.5t30.5 -4.5q25 0 42 12.5t23 51.5l71 482h-59l9 75h59l13 91q9 65 46.5 95.5
t96.5 30.5q22 0 46 -5z" />
    <glyph glyph-name="Scommaaccent" unicode="&#x218;" horiz-adv-x="629" 
d="M528.5 656.5q59.5 -39.5 59.5 -120.5q0 -21 -4 -44h-98q4 20 4 28q0 42 -35 64.5t-94 22.5q-72 0 -118 -26t-46 -77q0 -30 20 -49.5t50 -30.5t82 -25q69 -18 111.5 -36t73 -54.5t30.5 -97.5q0 -116 -78.5 -168.5t-214.5 -52.5q-106 0 -170.5 41t-64.5 129q0 14 2 30t5 25
h98q-3 -3 -4.5 -17t-1.5 -23q0 -48 38.5 -72t104.5 -24q86 0 135.5 31.5t49.5 90.5q0 32 -20 52t-49.5 31t-83.5 26q-68 18 -110.5 36t-72.5 55t-30 98q0 97 76 147t198 50q98 0 157.5 -39.5zM317 -125l-47 -125h-53l36 99h-41l16 111h101z" />
    <glyph glyph-name="scommaaccent" unicode="&#x219;" horiz-adv-x="536" 
d="M439.5 486q47.5 -35 47.5 -88q0 -22 -4 -34h-93q0 5 1 10t1 9q0 28 -24.5 45.5t-79.5 17.5q-68 0 -95 -23.5t-27 -51.5q0 -29 29 -42t92 -26q58 -12 94 -24t61.5 -38.5t25.5 -72.5q0 -94 -66.5 -136t-175.5 -42h-15q-93 0 -140.5 37.5t-47.5 93.5q0 17 2.5 27t2.5 12h93
l-2 -16v-7q0 -36 33 -54t87 -18q57 0 94.5 21.5t37.5 60.5q0 34 -31 48.5t-96 27.5q-57 12 -91.5 23.5t-59 37.5t-24.5 71q0 78 61 122t172 44h9q81 0 128.5 -35zM300 -125l-47 -125h-53l36 99h-41l16 111h101z" />
    <glyph glyph-name="uni021A" unicode="&#x21a;" horiz-adv-x="575" 
d="M594 597h-215l-84 -597h-98l84 597h-214l13 89h527zM278 -125l-47 -125h-53l36 99h-41l16 111h101z" />
    <glyph glyph-name="uni021B" unicode="&#x21b;" horiz-adv-x="344" 
d="M223 511h119l-11 -75h-119q-16 -101 -23 -153l-8 -58q-14 -98 -14 -113q0 -29 14 -39t36 -10q11 0 31 5t33 10l-10 -70q-17 -8 -41.5 -13t-46.5 -5q-57 0 -83.5 24.5t-26.5 78.5q0 25 14 128l8 60q6 49 23 155h-56l11 75h55l22 163h103zM204 -125l-47 -125h-53l36 99h-41
l16 111h101z" />
    <glyph glyph-name="circumflex" unicode="&#x2c6;" horiz-adv-x="536" 
d="M429 575h-80l-81 89l-108 -89h-80l157 145h78z" />
    <glyph glyph-name="caron" unicode="&#x2c7;" horiz-adv-x="536" 
d="M294 575h-78l-115 145h80l82 -89l107 89h80z" />
    <glyph glyph-name="uni02C9" unicode="&#x2c9;" horiz-adv-x="460" 
d="M382 662h-318l11 74h318z" />
    <glyph glyph-name="breve" unicode="&#x2d8;" horiz-adv-x="520" 
d="M426 680q-30 -29 -77 -48t-99 -19q-48 0 -88.5 17t-64 44t-23.5 55q0 6 1 8h67q5 -27 38 -44.5t80 -17.5q46 0 83 17.5t49 44.5h68q-4 -28 -34 -57z" />
    <glyph glyph-name="dotaccent" unicode="&#x2d9;" horiz-adv-x="280" 
d="M190 719q16 -17 16 -42q0 -30 -22.5 -51.5t-55.5 -21.5q-23 0 -39 15.5t-16 38.5q0 33 20.5 55.5t54.5 22.5q26 0 42 -17z" />
    <glyph glyph-name="ring" unicode="&#x2da;" horiz-adv-x="340" 
d="M243 720.5q27 -26.5 27 -67.5q0 -29 -15.5 -54t-40.5 -39.5t-53 -14.5q-42 0 -69 26t-27 68q0 46 33 77t76 31q42 0 69 -26.5zM128 687.5q-18 -18.5 -18 -45.5q0 -24 15 -40t39 -16t42.5 19t18.5 45q0 24 -15 40t-39 16q-25 0 -43 -18.5z" />
    <glyph glyph-name="ogonek" unicode="&#x2db;" horiz-adv-x="340" 
d="M147.5 -28q-17.5 -19 -17.5 -37q0 -16 12 -23.5t28 -7.5t34 4.5t35 9.5l8 -37q-43 -24 -93 -24q-37 0 -62 14.5t-25 45.5q0 26 17.5 45.5t47.5 37.5h54q-21 -9 -38.5 -28z" />
    <glyph glyph-name="tilde" unicode="&#x2dc;" horiz-adv-x="364" 
d="M351 644.5q-33 -31.5 -87 -31.5q-22 0 -42.5 4.5t-46.5 13.5q-26 8 -42 12t-33 4q-45 0 -60 -34h-48q7 40 40 72t86 32q22 0 41 -4.5t48 -14.5q26 -8 41.5 -12t32.5 -4q45 0 60 35h50q-7 -41 -40 -72.5z" />
    <glyph glyph-name="hungarumlaut" unicode="&#x2dd;" horiz-adv-x="442" 
d="M244 715l-135 -140h-70l116 145h89v-5zM399 715l-135 -140h-70l115 145h90v-5z" />
    <glyph glyph-name="uni0326" unicode="&#x326;" horiz-adv-x="0" 
d="M-125 -125l-47 -125h-53l36 99h-41l16 111h101z" />
    <glyph glyph-name="uni0394" unicode="&#x394;" horiz-adv-x="624" 
d="M567 65l-9 -65h-572l9 65l322 621h103zM85 75h396l-125 522z" />
    <glyph glyph-name="uni03A9" unicode="&#x3a9;" horiz-adv-x="699" 
d="M587 634q65 -61 65 -187q0 -123 -40 -219.5t-106 -147.5q13 2 35 4l50 6h35l-12 -90h-264l7 49q73 13 114.5 70.5t59.5 177.5q17 117 17 150q0 87 -39.5 124t-114.5 37q-90 0 -142.5 -54.5t-69.5 -178.5q-18 -123 -18 -162q0 -76 27 -114.5t84 -49.5l-7 -49h-264l12 90
h35l50 -6q25 -2 34 -4q-33 32 -50 77.5t-17 109.5q0 147 46 243t120.5 140.5t163.5 44.5h17q107 0 172 -61z" />
    <glyph glyph-name="uni03BC" unicode="&#x3bc;" horiz-adv-x="613" 
d="M515 304q-30 -209 -29 -212q0 -13 7 -20t17 -7q11 0 24.5 4.5t22.5 9.5l-9 -69q-13 -8 -33 -14t-44 -6q-76 0 -76 74v10q-31 -35 -77 -59.5t-97 -24.5q-54 0 -91 19v-41l-18 -129h-94l95 672h94l-24 -165q-25 -166 -24 -191q0 -90 93 -90q35 0 68.5 19t57.5 51.5t30 71.5
l43 304h94z" />
    <glyph glyph-name="pi" unicode="&#x3c0;" horiz-adv-x="627" 
d="M614 437h-87l-40 -285q-9 -62 -9 -109q0 -25 3 -43h-89q-6 11 -6 43q0 37 9 100l41 294h-174q-20 -106 -60 -241.5t-73 -195.5h-90q37 76 76.5 208t55.5 229q-83 0 -121 -12l-4 57q22 15 61 22t103 7h423z" />
    <glyph glyph-name="endash" unicode="&#x2013;" horiz-adv-x="637" 
d="M558 223h-498l12 95h499z" />
    <glyph glyph-name="emdash" unicode="&#x2014;" horiz-adv-x="1056" 
d="M971 223h-908l12 94h909z" />
    <glyph glyph-name="quoteleft" unicode="&#x2018;" horiz-adv-x="224" 
d="M159 562h41l-16 -111h-101l12 85l56 150h52z" />
    <glyph glyph-name="quoteright" unicode="&#x2019;" horiz-adv-x="218" 
d="M204 601l-56 -150h-52l44 124h-41l16 111h101z" />
    <glyph glyph-name="quotesinglbase" unicode="&#x201a;" horiz-adv-x="237" 
d="M132 26l-56 -150h-52l44 124h-41l16 111h101z" />
    <glyph glyph-name="quotedblleft" unicode="&#x201c;" horiz-adv-x="366" 
d="M159 562h41l-16 -111h-101l12 85l56 150h52zM301 562h41l-16 -111h-101l12 85l56 150h52z" />
    <glyph glyph-name="quotedblright" unicode="&#x201d;" horiz-adv-x="360" 
d="M204 601l-56 -150h-52l44 124h-41l16 111h101zM346 601l-56 -150h-52l44 124h-41l16 111h101z" />
    <glyph glyph-name="quotedblbase" unicode="&#x201e;" horiz-adv-x="379" 
d="M132 26l-56 -150h-52l44 124h-41l16 111h101zM274 26l-56 -150h-52l44 124h-41l16 111h101z" />
    <glyph glyph-name="dagger" unicode="&#x2020;" horiz-adv-x="511" 
d="M311 493l207 17l-13 -93l-203 18l-65 -605h-94l105 605l-207 -18l13 93l213 -17v193h88z" />
    <glyph glyph-name="daggerdbl" unicode="&#x2021;" horiz-adv-x="531" 
d="M320 492l207 18l-13 -93l-202 17l-8 -178l-21 -90q-14 -60 -22 -90q132 9 208 17l-13 -93l-203 18q-6 -128 -10 -193h-87l44 193l-207 -18l13 93q73 -8 202 -17l4 90q3 65 14 124t33 144l-208 -17l13 93l213 -18v194h87z" />
    <glyph glyph-name="bullet" unicode="&#x2022;" horiz-adv-x="600" 
d="M421 458.5q37 -37.5 37 -94.5q0 -44 -21 -83.5t-60.5 -64.5t-92.5 -25q-56 0 -92.5 37.5t-36.5 93.5q0 46 22.5 86t61.5 64t88 24q57 0 94 -37.5z" />
    <glyph glyph-name="ellipsis" unicode="&#x2026;" horiz-adv-x="734" 
d="M131 0h-102l15 111h102zM379 0h-102l15 111h102zM626 0h-102l15 111h102z" />
    <glyph glyph-name="perthousand" unicode="&#x2030;" horiz-adv-x="1034" 
d="M294 657q28 -29 28 -74q0 -2 -1.5 -19t-14.5 -106q-8 -54 -43 -87.5t-95 -33.5h-7q-49 0 -77.5 28.5t-28.5 72.5q-1 5 3 25q1 9 4.5 31.5t9.5 70.5q7 53 42.5 87t95.5 34h7q49 0 77 -29zM139 0h-70l515 686h68zM159 614.5q-18 -16.5 -22 -42.5q-18 -120 -18 -130
q0 -22 13.5 -36t39.5 -14q28 0 46.5 16.5t22.5 42.5q10 74 14 99t4 31q0 22 -14 36t-39 14q-29 0 -47 -16.5zM636 319q28 -29 28 -74q0 -2 -1.5 -19t-14.5 -106q-8 -54 -43 -87.5t-95 -33.5h-7q-49 0 -77.5 28.5t-28.5 72.5q-1 5 3 25q1 9 4.5 31.5t9.5 70.5q7 53 42.5 87
t95.5 34h7q49 0 77 -29zM969 319q28 -29 28 -74q0 -2 -1.5 -19t-14.5 -106q-8 -54 -43 -87.5t-95 -33.5h-7q-49 0 -77.5 28.5t-28.5 72.5q-1 5 3 25q1 9 4.5 31.5t9.5 70.5q7 53 42.5 87t95.5 34h7q49 0 77 -29zM501 276.5q-18 -16.5 -22 -42.5q-18 -120 -18 -130
q0 -22 13.5 -36t39.5 -14q28 0 46.5 16.5t22.5 42.5q10 74 14 99t4 31q0 22 -14 36t-39 14q-29 0 -47 -16.5zM834 276.5q-18 -16.5 -22 -42.5q-18 -120 -18 -130q0 -22 13.5 -36t39.5 -14q28 0 46.5 16.5t22.5 42.5q10 74 14 99t4 31q0 22 -14 36t-39 14q-29 0 -47 -16.5z
" />
    <glyph glyph-name="guilsinglleft" unicode="&#x2039;" horiz-adv-x="276" 
d="M134 337l68 -174h-51l-96 174l145 174h51z" />
    <glyph glyph-name="guilsinglright" unicode="&#x203a;" horiz-adv-x="278" 
d="M236 337l-148 -174h-51l120 174l-71 174h51z" />
    <glyph glyph-name="fraction" unicode="&#x2044;" horiz-adv-x="479" 
d="M22 0h-58l514 686h56z" />
    <glyph glyph-name="Euro" unicode="&#x20ac;" horiz-adv-x="562" 
d="M581 685l-13 -91q-33 10 -78 10q-54 0 -104 -21t-86.5 -58t-50.5 -84h198l-9 -64h-210q-10 -36 -10 -74h210l-9 -65h-196q14 -74 67 -116t134 -42q30 0 73 13l-12 -91q-44 -10 -96 -10q-71 0 -129 29.5t-94.5 85t-42.5 131.5h-100l9 65h90q8 62 10 74h-90l9 64h99
q20 73 69.5 130t121 89.5t153.5 32.5q33 0 87 -8z" />
    <glyph glyph-name="uni2113" unicode="&#x2113;" horiz-adv-x="451" 
d="M183 185q-4 -27 -4 -44q0 -40 21.5 -59t64.5 -19q38 0 92 15l-10 -70q-48 -18 -112 -18q-74 0 -112.5 35.5t-38.5 101.5q0 25 6 63l6 40h-69l11 75h68l14 101l1 6l5 37l9 62q13 91 63 138t128 47q72 0 111.5 -40.5t39.5 -122.5q0 -68 -27.5 -136.5t-92 -116.5t-168.5 -50
zM200 305q74 2 118 38.5t61.5 85.5t17.5 95q0 90 -70 90q-38 0 -64 -25.5t-34 -77.5l-15 -105z" />
    <glyph glyph-name="trademark" unicode="&#x2122;" horiz-adv-x="898" 
d="M406 626h-124l-47 -338h-65l47 338h-125l8 60h314zM824 288h-65q23 158 42 315l-86 -157l-86 -158h-62l-33 125q-20 79 -50 187l-43 -312h-58l55 398h99q14 -50 40 -150l39 -151l165 301h98z" />
    <glyph glyph-name="uni2126" unicode="&#x2126;" horiz-adv-x="699" 
d="M587 634q65 -61 65 -187q0 -123 -40 -219.5t-106 -147.5q13 2 35 4l50 6h35l-12 -90h-264l7 49q73 13 114.5 70.5t59.5 177.5q17 117 17 150q0 87 -39.5 124t-114.5 37q-90 0 -142.5 -54.5t-69.5 -178.5q-18 -123 -18 -162q0 -76 27 -114.5t84 -49.5l-7 -49h-264l12 90
h35l50 -6q25 -2 34 -4q-33 32 -50 77.5t-17 109.5q0 147 46 243t120.5 140.5t163.5 44.5h17q107 0 172 -61z" />
    <glyph glyph-name="estimated" unicode="&#x212e;" horiz-adv-x="760" 
d="M534.5 656.5q68.5 -39.5 106.5 -113.5t38 -175v-52h-485v-166q30 -42 76.5 -63.5t104.5 -21.5q63 0 113.5 24t81.5 70l66 -39q-41 -63 -107.5 -96.5t-153.5 -33.5q-91 0 -159.5 39.5t-106.5 114t-38 175.5v48q0 101 38 175.5t106.5 114t159.5 39.5t159.5 -39.5zM194 371
h359v170q-30 40 -75.5 60t-102.5 20q-59 0 -105 -21.5t-76 -62.5v-166z" />
    <glyph glyph-name="partialdiff" unicode="&#x2202;" horiz-adv-x="568" 
d="M435 671.5q45 -24.5 70 -69t25 -101.5q0 -17 -3 -37l-35 -243q-15 -106 -85.5 -168.5t-179.5 -62.5h-8q-91 0 -147 52t-56 139q0 73 34.5 130t92 88.5t123.5 31.5q46 0 86 -19.5t63 -54.5l17 120q1 3 1 9v8q0 47 -33.5 81.5t-83.5 34.5h-98l12 86h103q57 0 102 -24.5z
M187.5 334.5q-37.5 -23.5 -57.5 -63.5t-20 -86q0 -51 34 -82t91 -31q49 0 86 23.5t57 63t20 86.5q0 51 -33.5 82t-90.5 31q-49 0 -86.5 -23.5z" />
    <glyph glyph-name="uni2206" unicode="&#x2206;" horiz-adv-x="624" 
d="M567 65l-9 -65h-572l9 65l322 621h103zM85 75h396l-125 522z" />
    <glyph glyph-name="product" unicode="&#x220f;" horiz-adv-x="749" 
d="M770 611h-115l-100 -709h-102l100 709h-267l-100 -709h-102l100 709h-114l13 97h700z" />
    <glyph glyph-name="summation" unicode="&#x2211;" horiz-adv-x="605" 
d="M602 613h-369l-1 -4l190 -291l-295 -310v-4h407l-14 -102h-548l9 63l323 341l-216 336l9 66h518z" />
    <glyph glyph-name="minus" unicode="&#x2212;" 
d="M553 221h-512l13 91h512z" />
    <glyph glyph-name="uni2215" unicode="&#x2215;" horiz-adv-x="479" 
d="M22 0h-58l514 686h56z" />
    <glyph glyph-name="uni2219" unicode="&#x2219;" horiz-adv-x="238" 
d="M161 232h-101l15 112h101z" />
    <glyph glyph-name="radical" unicode="&#x221a;" horiz-adv-x="565" 
d="M270 -148h-90l-32 131l-75 310l-81 -30l-12 60l172 68q10 -46 18.5 -83t14.5 -65q41 -169 56 -273q98 247 245 632l81 211h80z" />
    <glyph glyph-name="infinity" unicode="&#x221e;" horiz-adv-x="766" 
d="M692.5 410q36.5 -38 36.5 -99q0 -50 -23.5 -96t-66 -74t-96.5 -28q-47 0 -86.5 26.5t-82.5 89.5q-57 -57 -103 -86.5t-102 -29.5q-58 0 -96 39.5t-38 101.5q0 56 23.5 100t66.5 69t99 25q53 0 93 -30t77 -85l21 20q53 48 91 71.5t89 23.5q61 0 97.5 -38zM131 349.5
q-33 -36.5 -33 -87.5q0 -37 24 -61.5t64 -24.5q30 0 57.5 14.5t46.5 31t59 54.5q-57 110 -139 110q-46 0 -79 -36.5zM510 361.5q-35 -24.5 -75 -63.5l-17 -16q41 -59 70.5 -82.5t66.5 -23.5q33 0 58 19t38 48t13 56q0 40 -22.5 63.5t-60.5 23.5q-36 0 -71 -24.5z" />
    <glyph glyph-name="integral" unicode="&#x222b;" horiz-adv-x="266" 
d="M299 701q-28 0 -60 -14.5t-35 -42.5q-58 -607 -82 -782q-9 -64 -59 -88t-113 -24l7 50q28 0 58.5 14.5t33.5 43.5q57 599 83 780q9 63 59.5 87.5t114.5 24.5z" />
    <glyph glyph-name="approxequal" unicode="&#x2248;" 
d="M599 360q-31 -31 -77 -54.5t-97 -23.5q-29 0 -54.5 8.5t-58.5 24.5q-38 17 -62.5 25t-53.5 8q-52 0 -96 -23t-78 -55l12 85q34 32 78 55t96 23q29 0 54.5 -8.5t58.5 -24.5q38 -17 62.5 -25t53.5 -8q91 0 173 78zM569 151q-31 -31 -77 -54.5t-97 -23.5q-29 0 -54.5 8.5
t-58.5 24.5q-38 17 -62.5 25t-53.5 8q-52 0 -93.5 -22t-79.5 -56l11 85q34 32 78 55t96 23q29 0 54.5 -8.5t58.5 -24.5q38 -17 62.5 -25t53.5 -8q51 0 97 23.5t77 54.5z" />
    <glyph glyph-name="notequal" unicode="&#x2260;" 
d="M461 401h113l-12 -83h-166q-72 -86 -109 -129h257l-12 -84h-309l-88 -105h-82q14 18 22 26q28 36 66 79h-112l12 84h165l109 129h-256l12 83h309q27 31 93 110h79z" />
    <glyph glyph-name="lessequal" unicode="&#x2264;" 
d="M580 430l-445 -118q138 -40 222 -64t115 -33l75 -21l-12 -90l-86 27q-100 32 -200.5 64t-201.5 63l15 107q68 20 119.5 35t87.5 26q73 21 153.5 44.5t170.5 49.5zM520 0h-510l12 83h510z" />
    <glyph glyph-name="greaterequal" unicode="&#x2265;" 
d="M432 411l144 -46l-15 -107q-265 -76 -350 -102l-180 -52l12 90l445 118q-201 56 -412 118l13 90q202 -63 343 -109zM526 0h-510l12 83h510z" />
    <glyph glyph-name="lozenge" unicode="&#x25ca;" horiz-adv-x="489" 
d="M468 343l-214 -343h-103l-115 343l212 343h103zM197 466l-78 -123l95 -269q75 122 172 269q-35 89 -81 222l-16 46z" />
    <glyph glyph-name="caron.alt" horiz-adv-x="218" 
d="M204 601l-56 -150h-52l44 124h-41l16 111h101z" />
    </font>
</defs>
</svg>
