<?xml version="1.0" standalone="no"?>
<!DOCTYPE svg PUBLIC "-//W3C//DTD SVG 1.1//EN" "http://www.w3.org/Graphics/SVG/1.1/DTD/svg11.dtd" >
<svg xmlns="http://www.w3.org/2000/svg" xmlns:xlink="http://www.w3.org/1999/xlink" version="1.1">
<metadata>
Created by FontForge 20201107 at Thu Feb 18 22:55:40 2016
 By 
Copyright (c) 2011-2016 by Omnibus-Type (www.omnibus-type.com omnibus.type@gmail.com)
</metadata>
<defs>
<font id="Chivo-Bold" horiz-adv-x="598" >
  <font-face 
    font-family="Chivo"
    font-weight="700"
    font-stretch="normal"
    units-per-em="1000"
    panose-1="2 11 8 3 3 2 2 2 8 4"
    ascent="800"
    descent="-200"
    x-height="511"
    cap-height="686"
    bbox="-212 -250 1030 931"
    underline-thickness="50"
    underline-position="-100"
    unicode-range="U+0020-FB02"
  />
<missing-glyph horiz-adv-x="500" 
d="M500 700v-700h-500v700h500zM80 650l170 -255l170 255h-340zM220 350l-170 255v-510zM450 605l-170 -255l170 -255v510zM250 305l-170 -255h340z" />
    <glyph glyph-name="fi" unicode="fi" horiz-adv-x="641" 
d="M318 625.5q-19 3.5 -30 3.5q-24 0 -40.5 -12t-16.5 -48v-58h119v-100h-119v-411h-146v411h-60v100h60v67q0 150 154 150q25 0 58 -6t53 -15v-89q-13 4 -32 7.5zM576 720v-115h-148v115h148zM429 511h146v-511h-146v511z" />
    <glyph glyph-name="fl" unicode="fl" horiz-adv-x="642" 
d="M318 625.5q-19 3.5 -30 3.5q-24 0 -40.5 -12t-16.5 -48v-58h119v-100h-119v-411h-146v411h-60v100h60v67q0 150 154 150q25 0 58 -6t53 -15v-89q-13 4 -32 7.5zM429 720h146v-720h-146v720z" />
    <glyph glyph-name=".notdef" horiz-adv-x="500" 
d="M500 700v-700h-500v700h500zM80 650l170 -255l170 255h-340zM220 350l-170 255v-510zM450 605l-170 -255l170 -255v510zM250 305l-170 -255h340z" />
    <glyph glyph-name=".null" horiz-adv-x="0" 
 />
    <glyph glyph-name="nonmarkingreturn" horiz-adv-x="333" 
 />
    <glyph glyph-name="space" unicode=" " horiz-adv-x="220" 
 />
    <glyph glyph-name="exclam" unicode="!" horiz-adv-x="290" 
d="M233 686l-41 -484h-97l-39 484h177zM218 147v-147h-146v147h146z" />
    <glyph glyph-name="quotedbl" unicode="&#x22;" horiz-adv-x="461" 
d="M98 475l-16 64v147h118v-147q-17 -75 -34 -138h-50zM260 539v147h119v-147l-10 -41q-11 -38 -25 -97h-50z" />
    <glyph glyph-name="numbersign" unicode="#" horiz-adv-x="600" 
d="M178 494l45 202h97l-45 -202h130l45 202h96q-27 -123 -46 -202h98v-92h-116l-30 -138h110v-92h-132q-15 -70 -38 -172h-96q23 102 38 172h-131l-37 -172h-97l38 172h-104v92h125l31 138h-114v92h133zM355 263l31 138h-132l-30 -138h131z" />
    <glyph glyph-name="dollar" unicode="$" horiz-adv-x="586" 
d="M399 485q0 34 -27 54.5t-74 20.5q-48 0 -76.5 -17t-28.5 -43q0 -23 17.5 -38t43 -24t73.5 -21q70 -17 113.5 -34.5t75 -54.5t31.5 -100q0 -100 -59.5 -151t-163.5 -57q9 -62 13 -86h-101l13 87q-95 8 -154.5 56.5t-59.5 138.5l1 20h135l-1 -15q0 -40 29 -62t84 -22
q64 0 91.5 19t27.5 49q0 24 -17 39t-42.5 24t-72.5 21q-68 16 -112.5 34t-76 57t-31.5 105q0 81 55 128.5t144 57.5q-8 58 -13 87h101q-6 -33 -13 -86q94 -6 151.5 -52.5t57.5 -132.5v-11h-134v9z" />
    <glyph glyph-name="percent" unicode="%" horiz-adv-x="739" 
d="M119 0l419 686h80l-416 -686h-83zM268 371.5q-35 -35.5 -87 -35.5h-15q-52 0 -87 35.5t-35 86.5v105q0 51 35 86.5t87 35.5h15q52 0 87 -35.5t35 -86.5v-105q0 -51 -35 -86.5zM208.5 608q-13.5 14 -34.5 14t-35 -14t-14 -35v-124q0 -21 13.5 -35t35.5 -14q21 0 34.5 14
t13.5 35v124q0 21 -13.5 35zM658 34.5q-35 -35.5 -87 -35.5h-15q-52 0 -87 35.5t-35 86.5v105q0 51 35 86.5t87 35.5h15q52 0 87 -35.5t35 -86.5v-105q0 -51 -35 -86.5zM598.5 270.5q-13.5 14.5 -34.5 14.5t-35 -14.5t-14 -35.5v-124q0 -21 14 -35t35 -14t34.5 14t13.5 35
v124q0 21 -13.5 35.5z" />
    <glyph glyph-name="ampersand" unicode="&#x26;" horiz-adv-x="670" 
d="M304 577q-44 0 -73.5 -21.5t-29.5 -62.5q0 -18 11.5 -38t34 -33.5t53.5 -13.5h122l8 26q6 18 14.5 44t18.5 61h103v-131h94v-116h-94v-292h-272q-112 0 -184.5 47t-72.5 148q0 120 126 162q-50 19 -79 57.5t-29 92.5q0 59 33 102t87.5 65t115.5 22q26 0 56 -5v-121
q-23 7 -43 7zM215.5 267q-30.5 -25 -30.5 -63q0 -91 140 -91h93v179h-114q-58 0 -88.5 -25z" />
    <glyph glyph-name="quotesingle" unicode="'" horiz-adv-x="272" 
d="M76 539v147h119v-147l-35 -138h-50z" />
    <glyph glyph-name="parenleft" unicode="(" horiz-adv-x="326" 
d="M77 489.5q41 109.5 118 196.5h80q-54 -89 -87 -203t-33 -218q0 -105 33 -219.5t87 -202.5h-80q-77 87 -118 196t-41 225t41 225.5z" />
    <glyph glyph-name="parenright" unicode=")" horiz-adv-x="326" 
d="M244 38.5q-41 -109.5 -118 -196.5h-80q53 88 86 203.5t33 219.5q0 103 -33 217.5t-86 203.5h80q77 -87 118 -196.5t41 -225.5t-41 -225.5z" />
    <glyph glyph-name="asterisk" unicode="*" horiz-adv-x="583" 
d="M455 339l-82 -60l-84 138l-82 -137l-82 59l105 119l-155 38l32 93l148 -63l-13 160h99l-15 -160l153 62l29 -94l-158 -36z" />
    <glyph glyph-name="plus" unicode="+" horiz-adv-x="600" 
d="M556 308v-106h-204v-202h-105v202h-203v106h203v203h105v-203h204z" />
    <glyph glyph-name="comma" unicode="," horiz-adv-x="277" 
d="M128 0h-63v147h146v-123l-42 -168h-73q10 48 32 144z" />
    <glyph glyph-name="hyphen" unicode="-" horiz-adv-x="260" 
d="M253 336v-128h-253v128h253z" />
    <glyph glyph-name="period" unicode="." horiz-adv-x="277" 
d="M211 147v-147h-146v147h146z" />
    <glyph glyph-name="slash" unicode="/" horiz-adv-x="564" 
d="M-25 -171l490 857h105l-489 -857h-106z" />
    <glyph glyph-name="zero" unicode="0" horiz-adv-x="612" 
d="M528 108q-32 -55 -87 -86.5t-121 -31.5h-29q-66 0 -121 31.5t-86.5 86.5t-31.5 122v225q0 67 31.5 122t86.5 87t121 32h29q66 0 121 -32t87 -87t32 -122v-225q0 -67 -32 -122zM381.5 548q-30.5 31 -75.5 31t-75.5 -31t-30.5 -76v-258q0 -45 30.5 -76t75.5 -31t75.5 31
t30.5 76v258q0 45 -30.5 76z" />
    <glyph glyph-name="one" unicode="1" horiz-adv-x="612" 
d="M80 121h166v393h-167v89q56 4 127 28.5t134 59.5h53v-570h163v-121h-476v121z" />
    <glyph glyph-name="two" unicode="2" horiz-adv-x="612" 
d="M80.5 134.5q22.5 38.5 63.5 70.5l195 153q38 29 52.5 59.5t14.5 63.5q0 37 -24 64.5t-72 27.5q-39 0 -64.5 -17.5t-37.5 -41.5t-12 -42t1 -27h-137q-1 8 -1 19q0 54 24 106.5t82 89t152 36.5h15q72 0 123.5 -30t77.5 -78.5t26 -103.5q0 -59 -22.5 -104.5t-77.5 -91.5
q-63 -53 -152 -120q-10 -8 -25 -22t-15 -18h294v-128h-503v30q0 66 22.5 104.5z" />
    <glyph glyph-name="three" unicode="3" horiz-adv-x="612" 
d="M174 205q0 -96 118 -96q59 0 90.5 24t31.5 72q0 55 -35 73t-94 18h-72v107h82q45 0 74 23t29 66q0 42 -30.5 63.5t-75.5 21.5q-43 0 -73 -23.5t-30 -65.5h-133v21q0 53 30.5 96t84.5 67t123 24h19q67 0 119.5 -24t82.5 -66.5t30 -95.5q0 -54 -27.5 -92t-74.5 -59v-5
q56 -19 88 -61.5t32 -106.5q0 -56 -31 -101t-87.5 -70t-131.5 -25h-27q-78 0 -134.5 26t-85.5 71.5t-29 103.5v14h137z" />
    <glyph glyph-name="four" unicode="4" horiz-adv-x="612" 
d="M380.5 516q21.5 52 33.5 96h64v-334h92v-118h-92v-160h-143v160h-302v119q51 81 104.5 201.5t80.5 215.5h141q-15 -68 -54 -151.5t-83.5 -156.5t-76.5 -110h190v150q24 36 45.5 88z" />
    <glyph glyph-name="five" unicode="5" horiz-adv-x="612" 
d="M460 423.5q50 -29.5 75.5 -82t25.5 -118.5q0 -67 -31.5 -120t-88 -83t-129.5 -30h-15q-74 0 -130 30.5t-86.5 82.5t-31.5 116h137q1 -47 34.5 -77.5t78.5 -30.5q51 0 82.5 32t31.5 84q0 47 -28.5 79.5t-78.5 32.5q-70 0 -107 -52l-123 18l28 381h413v-130h-297l-12 -151
q61 48 133 48q69 0 119 -29.5z" />
    <glyph glyph-name="six" unicode="6" horiz-adv-x="612" 
d="M231 546q-32 -30 -32 -74v-97q27 29 64 44t76 15q62 0 112.5 -25.5t80 -73t29.5 -110.5q0 -71 -32.5 -124t-89 -82t-125.5 -29h-14q-68 0 -125 30.5t-90 85.5t-33 125v224q0 67 33 122t89 87t123 32h14q66 0 120 -27t85 -78.5t31 -121.5h-138q0 44 -28.5 75.5t-73.5 31.5
q-44 0 -76 -30zM384.5 302.5q-31.5 29.5 -78.5 29.5q-45 0 -76 -29.5t-31 -74.5v-20q0 -45 31.5 -74.5t78.5 -29.5q45 0 76 29.5t31 74.5v20q0 45 -31.5 74.5z" />
    <glyph glyph-name="seven" unicode="7" horiz-adv-x="612" 
d="M388 338q-67 -139 -67 -283q0 -43 1 -55h-168q0 145 67 284t170 271h-325v131h496v-72q-107 -137 -174 -276z" />
    <glyph glyph-name="eight" unicode="8" horiz-adv-x="612" 
d="M533.5 283.5q27.5 -36.5 27.5 -96.5q0 -94 -68 -145.5t-187 -51.5q-115 0 -185 52t-70 145q0 60 27.5 97t81.5 64v4q-43 29 -64.5 61t-21.5 87q0 61 30 105.5t82.5 67.5t119.5 23t119.5 -23t82.5 -67.5t30 -105.5q0 -55 -21.5 -87t-64.5 -61v-4q54 -28 81.5 -64.5z
M238 424.5q27 -25.5 68 -25.5t68 25.5t27 62.5v11q0 37 -27 62.5t-68 25.5t-68 -25.5t-27 -62.5v-11q0 -37 27 -62.5zM230 125q30 -25 76 -25t76 25t30 67v16q0 42 -30 67t-76 25t-76 -25t-30 -67v-16q0 -42 30 -67z" />
    <glyph glyph-name="nine" unicode="9" horiz-adv-x="612" 
d="M356 123q25 14 41 38t16 52v97q-27 -29 -64 -44t-76 -15q-62 0 -112.5 25.5t-80 73t-29.5 110.5q0 71 32.5 124.5t89 82.5t125.5 29h14q68 0 125 -30.5t90 -86t33 -125.5v-224q0 -67 -33 -122t-89 -86.5t-123 -31.5h-14q-66 0 -120 26.5t-85 78t-31 121.5h138
q0 -45 28.5 -76t73.5 -31q26 0 51 14zM226.5 383q30.5 -29 77.5 -29q45 0 77 29.5t32 73.5v21q0 45 -31 74t-78 29q-45 0 -76.5 -29.5t-31.5 -73.5v-21q0 -45 30.5 -74z" />
    <glyph glyph-name="colon" unicode=":" horiz-adv-x="277" 
d="M211 511v-148h-146v148h146zM211 147v-147h-146v147h146z" />
    <glyph glyph-name="semicolon" unicode=";" horiz-adv-x="277" 
d="M211 511v-148h-146v148h146zM128 0h-63v147h146v-123l-42 -168h-73q10 48 32 144z" />
    <glyph glyph-name="less" unicode="&#x3c;" horiz-adv-x="599" 
d="M554 512v-114l-389 -144l389 -144v-113q-76 28 -175.5 66.5t-146.5 56.5l-187 72v123z" />
    <glyph glyph-name="equal" unicode="=" horiz-adv-x="600" 
d="M46 415h508v-106h-508v106zM46 199h508v-106h-508v106z" />
    <glyph glyph-name="greater" unicode="&#x3e;" horiz-adv-x="600" 
d="M367 120q-47 -18 -146.5 -56.5t-175.5 -66.5v113l388 144q-31 12 -93 34l-295 110v114l509 -197v-123z" />
    <glyph glyph-name="question" unicode="?" horiz-adv-x="572" 
d="M222 201v58q0 33 17 56t53 57q36 33 54.5 59t18.5 62q0 40 -22.5 64.5t-67.5 24.5q-53 0 -73.5 -30t-20.5 -68l1 -32h-141q-3 27 -3 37q0 52 29.5 100t83.5 77.5t123 29.5h22q70 0 121 -28t77.5 -75t26.5 -102q0 -46 -15.5 -80t-36.5 -55.5t-54 -47.5q-30 -25 -43.5 -40
t-13.5 -35v-32h-136zM363 147v-147h-147v147h147z" />
    <glyph glyph-name="at" unicode="@" horiz-adv-x="927" 
d="M698 122.5q10 -9.5 25 -9.5q35 0 62.5 45.5t27.5 162.5q0 162 -90.5 240t-247.5 78q-171 0 -266 -95.5t-95 -282.5q0 -179 80.5 -267.5t246.5 -88.5q36 0 87.5 9.5t77.5 22.5v-63q-30 -11 -80 -19t-85 -8q-188 0 -290.5 102t-102.5 313q0 152 57 249.5t153 141.5t218 44
q184 0 293.5 -92.5t109.5 -284.5q0 -107 -30.5 -174t-76.5 -95.5t-96 -28.5q-54 0 -79 21t-34 60h-4q-35 -40 -71 -60.5t-89 -20.5q-71 0 -117 29.5t-46 110.5q0 66 37.5 101.5t105.5 48t174 12.5v36q0 31 -19 51t-66 20q-43 0 -63.5 -20t-20.5 -40v-7h-132q-1 6 -1 17
q0 40 26.5 72t74.5 50t110 18h20q101 0 153.5 -40t52.5 -110v-221q0 -18 10 -27.5zM421 229.5q-44 -17.5 -44 -57.5q0 -31 17.5 -44.5t51.5 -13.5q43 0 75 31t32 80v22q-88 0 -132 -17.5z" />
    <glyph glyph-name="A" unicode="A" horiz-adv-x="686" 
d="M199 135l-48 -135h-149l249 686h184l249 -686h-162l-50 135h-273zM241 252h190q-38 113 -92 269h-5z" />
    <glyph glyph-name="B" unicode="B" horiz-adv-x="645" 
d="M412 686q49 0 90 -22.5t65.5 -61t24.5 -84.5q0 -70 -33 -108t-84 -52v-5q55 -11 94 -51t39 -119q0 -50 -25.5 -92t-69 -66.5t-95.5 -24.5h-346v686h340zM421 431q23 23 23 58q0 42 -23 60.5t-53 18.5h-150v-160h150q30 0 53 23zM435 147q23 23 23 56v9q0 33 -23 56
t-56 23h-161v-167h161q33 0 56 23z" />
    <glyph glyph-name="C" unicode="C" horiz-adv-x="683" 
d="M251 154.5q41 -41.5 104 -41.5q71 0 105 38.5t34 118.5h141q0 -88 -35.5 -151.5t-97.5 -96t-140 -32.5h-14q-86 0 -154 35t-107 103.5t-39 165.5v98q0 94 39 163t106.5 105t150.5 36h14q80 0 142.5 -31.5t98.5 -95t36 -155.5h-147q0 78 -34.5 118.5t-99.5 40.5
q-63 0 -103.5 -41.5t-40.5 -117.5v-142q0 -76 41 -117.5z" />
    <glyph glyph-name="D" unicode="D" horiz-adv-x="686" 
d="M486.5 650q69.5 -36 110.5 -105t41 -163v-78q0 -94 -41 -163t-110.5 -105t-154.5 -36h-260v686h260q85 0 154.5 -36zM227 123h105q64 0 104 41.5t40 117.5v122q0 76 -40 117.5t-104 41.5h-105v-440z" />
    <glyph glyph-name="E" unicode="E" 
d="M72 686h483l-17 -123h-314v-150h293v-123h-293v-167h317l17 -123h-486v686z" />
    <glyph glyph-name="F" unicode="F" horiz-adv-x="563" 
d="M224 563v-164h266v-123h-266v-276h-152v686h464l-16 -123h-296z" />
    <glyph glyph-name="G" unicode="G" horiz-adv-x="699" 
d="M251.5 154.5q41.5 -41.5 104.5 -41.5q62 0 97 37t35 111h-155v112h300v-237q0 -50 2.5 -88t3.5 -48h-85q-13 36 -24 77q-32 -41 -83.5 -64t-109.5 -23h-5q-82 0 -146.5 37t-101 106t-36.5 161v98q0 92 38 161t106.5 106t155.5 37h14q75 0 137 -31.5t98 -89t36 -133.5
h-146q0 65 -38 98t-96 33q-63 0 -103 -41.5t-40 -117.5v-142q0 -76 41.5 -117.5z" />
    <glyph glyph-name="H" unicode="H" horiz-adv-x="691" 
d="M464 286h-237v-286h-155v686h154v-272h238v272h154v-686h-154v286z" />
    <glyph glyph-name="I" unicode="I" horiz-adv-x="461" 
d="M388 686v-123h-80v-440h80v-123h-316v123h81v440h-81v123h316z" />
    <glyph glyph-name="J" unicode="J" horiz-adv-x="527" 
d="M155 228v-41q0 -30 22 -52t51 -22q33 0 54.5 20.5t21.5 53.5v499h151v-503q0 -92 -60 -142.5t-156 -50.5h-20q-96 0 -152.5 50t-56.5 143v45h145z" />
    <glyph glyph-name="K" unicode="K" horiz-adv-x="660" 
d="M223 686v-314l247 314h173l-231 -289q85 -142 98 -164l140 -233h-175l-163 278l-89 -99v-179h-151v686h151z" />
    <glyph glyph-name="L" unicode="L" horiz-adv-x="533" 
d="M72 686h155v-558h282l17 -128h-454v686z" />
    <glyph glyph-name="M" unicode="M" horiz-adv-x="967" 
d="M740 505h-5l-178 -505h-162l-178 505h-5v-505h-140v686h249l160 -453h4l160 453h249v-686h-154v505z" />
    <glyph glyph-name="N" unicode="N" horiz-adv-x="691" 
d="M272 316q-11 16 -30 47.5t-25 41.5l-4 -3v-402h-141v686h131l216 -318l30 -47q16 -28 25 -41l3 3v403h141v-686h-131z" />
    <glyph glyph-name="O" unicode="O" horiz-adv-x="708" 
d="M619 131q-41 -69 -110.5 -105t-154.5 -36t-154.5 36t-110.5 105t-41 163v98q0 94 41 163t110.5 105t154.5 36t154.5 -36t110.5 -105t41 -163v-98q0 -94 -41 -163zM458 531.5q-40 41.5 -104 41.5t-104 -41.5t-40 -117.5v-142q0 -76 40 -117.5t104 -41.5t104 41.5t40 117.5
v142q0 76 -40 117.5z" />
    <glyph glyph-name="P" unicode="P" horiz-adv-x="629" 
d="M226 0h-154v686h331q56 0 103.5 -26.5t75.5 -73.5t28 -105v-6q0 -57 -27.5 -105.5t-75 -76.5t-104.5 -28h-177v-265zM226 386h141q38 0 63 25.5t25 59.5v6q0 35 -24.5 60.5t-63.5 25.5h-141v-177z" />
    <glyph glyph-name="Q" unicode="Q" horiz-adv-x="708" 
d="M600.5 103q-59.5 -76 -157.5 -102q9 -23 30.5 -39t59.5 -16q21 0 48.5 5.5t47.5 11.5t26 9v-88q0 -1 -23 -11t-58 -18t-76 -8q-93 0 -144 44.5t-64 104.5q-70 12 -124.5 50.5t-86 101.5t-31.5 146v98q0 94 41 163t110.5 105t154.5 36t154.5 -36t110.5 -105t41 -163v-98
q0 -115 -59.5 -191zM458 531.5q-40 41.5 -104 41.5t-104 -41.5t-40 -117.5v-142q0 -76 40 -117.5t104 -41.5t104 41.5t40 117.5v142q0 76 -40 117.5z" />
    <glyph glyph-name="R" unicode="R" horiz-adv-x="665" 
d="M562 -7q-51 0 -83 25t-32 84q0 86 -22.5 134t-84.5 48h-116v-284h-152v686h307q98 0 164.5 -40t66.5 -130q0 -36 -16 -71t-44.5 -60t-62.5 -31v-5q44 -14 77 -60t33 -123q0 -110 51 -126v-34q-33 -13 -86 -13zM430.5 427q23.5 22 23.5 53v7q0 33 -22.5 54.5t-57.5 21.5
h-150v-158h150q33 0 56.5 22z" />
    <glyph glyph-name="S" unicode="S" horiz-adv-x="635" 
d="M435 492q0 38 -30 59.5t-83 21.5q-55 0 -85.5 -17.5t-30.5 -46.5q0 -25 19 -41.5t48.5 -26.5t80.5 -22q75 -18 123.5 -37t83 -59t34.5 -107q0 -117 -75.5 -171.5t-207.5 -54.5q-120 0 -198.5 52.5t-78.5 159.5l1 22h146l-1 -16q0 -44 33 -69.5t93 -25.5q70 0 100.5 22
t30.5 56q0 26 -18.5 42.5t-47 26t-79.5 21.5q-76 19 -124 38t-83 61t-35 113q0 66 36 112t96.5 68.5t135.5 22.5q115 0 188 -50.5t73 -150.5v-12h-145v9z" />
    <glyph glyph-name="T" unicode="T" horiz-adv-x="557" 
d="M355 0h-153v562h-195v124h542v-124h-194v-562z" />
    <glyph glyph-name="U" unicode="U" horiz-adv-x="673" 
d="M577 98q-32 -52 -91 -80t-136 -28h-28q-77 0 -135.5 28t-90.5 80t-32 120v468h154v-465q0 -47 33.5 -78t85.5 -31q53 0 85.5 30.5t32.5 78.5v465h154v-468q0 -68 -32 -120z" />
    <glyph glyph-name="V" unicode="V" horiz-adv-x="643" 
d="M487 686h148l-226 -686h-177l-225 686h162l156 -490h5z" />
    <glyph glyph-name="W" unicode="W" horiz-adv-x="972" 
d="M370 0h-171l-192 686h161l121 -449h5l122 449h155l121 -449h5l121 449h146l-193 -686h-169l-112 412h-6z" />
    <glyph glyph-name="X" unicode="X" horiz-adv-x="658" 
d="M232 360l-210 326h181l130 -210h4q102 154 133 210h167q-20 -31 -79.5 -123.5t-131.5 -200.5q69 -107 138 -214.5t94 -147.5h-181l-152 245h-4q-129 -199 -154 -245h-167z" />
    <glyph glyph-name="Y" unicode="Y" horiz-adv-x="637" 
d="M396 0h-154v263l-235 423h174l143 -272h5l143 272h158l-234 -423v-263z" />
    <glyph glyph-name="Z" unicode="Z" horiz-adv-x="631" 
d="M42 49l316 514h-292v123h515v-50l-315 -513h323v-123h-547v49z" />
    <glyph glyph-name="bracketleft" unicode="[" horiz-adv-x="338" 
d="M62 686h203v-69h-88v-709h88v-69h-203v847z" />
    <glyph glyph-name="backslash" unicode="\" horiz-adv-x="560" 
d="M95 686l490 -857h-107l-489 857h106z" />
    <glyph glyph-name="bracketright" unicode="]" horiz-adv-x="338" 
d="M71 -92h88v709h-88v69h203v-847h-203v69z" />
    <glyph glyph-name="asciicircum" unicode="^" 
d="M556 0h-111q-98 256 -146 385l-146 -385h-112l197 511h121z" />
    <glyph glyph-name="underscore" unicode="_" horiz-adv-x="500" 
d="M0 -65h500v-61h-500v61z" />
    <glyph glyph-name="grave" unicode="`" horiz-adv-x="333" 
d="M51 717l1 3h128l93 -145h-102z" />
    <glyph glyph-name="a" unicode="a" 
d="M357.5 400q-21.5 21 -69.5 21q-28 0 -48 -9.5t-30.5 -23.5t-10.5 -26v-8h-141q-2 12 -2 18q0 43 28.5 77t79.5 53t117 19h21q108 0 164 -42.5t56 -116.5v-236q0 -18 8.5 -27t20.5 -9q10 0 22 4t19 7v-90q-37 -21 -88 -21q-55 0 -84 22.5t-34 63.5q-70 -86 -172 -86
q-76 0 -125 31t-49 118q0 71 40.5 108.5t112.5 50.5t186 13v34q0 34 -21.5 55zM237.5 210.5q-46.5 -18.5 -46.5 -60.5q0 -33 18.5 -46.5t56.5 -13.5q26 0 52 14t43.5 40t17.5 58v27q-95 0 -141.5 -18.5z" />
    <glyph glyph-name="b" unicode="b" horiz-adv-x="595" 
d="M270.5 501q36.5 20 84.5 20q56 0 100.5 -29t70.5 -87t26 -141v-11q0 -87 -28 -146t-76 -88t-108 -29q-55 0 -98 22.5t-72 65.5l-17 -26q-10 -17 -19 -29.5t-15 -22.5h-53v720h146v-268q22 29 58.5 49zM377 384q-27 31 -69 31t-69 -31t-27 -90v-83q0 -58 27 -89.5
t69 -31.5t69 31.5t27 89.5v83q0 59 -27 90z" />
    <glyph glyph-name="c" unicode="c" horiz-adv-x="567" 
d="M217 123.5q26 -33.5 70 -33.5q46 0 72.5 28.5t26.5 84.5h138q0 -71 -30.5 -119t-80.5 -71t-110 -23h-16q-112 0 -178 66.5t-66 184.5v29q0 78 31.5 134.5t86.5 86.5t126 30h16q59 0 109.5 -25.5t81 -74t30.5 -114.5h-145q0 52 -23 83t-68 31t-71 -35.5t-26 -89.5v-89
q0 -50 26 -83.5z" />
    <glyph glyph-name="d" unicode="d" horiz-adv-x="595" 
d="M399 64q-56 -74 -144 -74q-60 0 -108 29t-76 88t-28 146v11q0 83 26 141t70.5 87t100.5 29q48 0 84.5 -20t58.5 -49v268h146v-720h-115zM218 121.5q27 -31.5 69 -31.5t69 31.5t27 89.5v83q0 59 -27 90t-69 31t-69 -31t-27 -90v-83q0 -58 27 -89.5z" />
    <glyph glyph-name="e" unicode="e" horiz-adv-x="584" 
d="M508 78.5q-32 -45.5 -84.5 -67t-114.5 -21.5h-16q-71 0 -128 30t-89.5 86.5t-32.5 134.5v29q0 77 33 134t89.5 87t127.5 30h16q62 0 115 -25.5t85 -74t32 -114.5v-76h-350v-24q0 -50 29.5 -83.5t80.5 -33.5q46 0 72.5 25.5t26.5 75.5h140q0 -67 -32 -112.5zM222.5 390
q-27.5 -31 -31.5 -79h202q0 51 -23.5 80.5t-75.5 29.5q-44 0 -71.5 -31z" />
    <glyph glyph-name="f" unicode="f" horiz-adv-x="363" 
d="M318 625.5q-19 3.5 -30 3.5q-24 0 -40.5 -12t-16.5 -48v-58h119v-100h-119v-411h-146v411h-60v100h60v67q0 150 154 150q25 0 58 -6t53 -15v-89q-13 4 -32 7.5z" />
    <glyph glyph-name="g" unicode="g" horiz-adv-x="572" 
d="M524.5 76.5q37.5 -39.5 37.5 -103.5q0 -46 -26 -83t-70.5 -57.5t-98.5 -20.5h-211q-61 0 -102.5 33.5t-41.5 92.5q0 36 21.5 65.5t54.5 44.5q-23 15 -35 37t-12 48q0 37 24 64.5t62 39.5q-34 21 -53 53.5t-19 69.5q0 71 55.5 116t162.5 45h16q47 0 84 -12q41 24 57 49
t18 45h114q0 -106 -106 -132l-1 -3q53 -45 53 -108q0 -44 -25 -80.5t-70.5 -58t-104.5 -21.5h-69q-30 0 -46.5 -13t-16.5 -29q0 -20 15.5 -31t47.5 -11h178q70 0 107.5 -39.5zM220 305.5q25 -19.5 63 -19.5q39 0 64 19.5t25 54.5t-25 54.5t-64 19.5q-38 0 -63 -19.5
t-25 -54.5t25 -54.5zM408 -82.5q19 15.5 19 36.5q0 20 -16 33.5t-42 13.5h-174q-22 0 -38 -14.5t-16 -34.5t16 -35t38 -15h168q26 0 45 15.5z" />
    <glyph glyph-name="h" unicode="h" 
d="M212 461q58 60 142 60q78 0 128.5 -42t50.5 -122v-357h-146v325q0 39 -22.5 64.5t-57.5 25.5q-39 0 -67 -29.5t-28 -71.5v-314h-146v720h146v-259z" />
    <glyph glyph-name="i" unicode="i" horiz-adv-x="278" 
d="M213 720v-115h-148v115h148zM66 511h146v-511h-146v511z" />
    <glyph glyph-name="j" unicode="j" horiz-adv-x="280" 
d="M214 720v-115h-148v115h148zM213 510v-530q0 -166 -154 -166q-26 0 -58 5.5t-51 14.5v93q11 -5 30 -9t31 -4q26 0 41 14t15 54v528h146z" />
    <glyph glyph-name="k" unicode="k" horiz-adv-x="562" 
d="M269 167l-57 -55v-112h-146v720h146v-447l179 238h165l-188 -240l196 -271h-174z" />
    <glyph glyph-name="l" unicode="l" horiz-adv-x="279" 
d="M66 720h146v-720h-146v720z" />
    <glyph glyph-name="m" unicode="m" horiz-adv-x="870" 
d="M430 500q39 -21 60 -61q52 82 149 82q72 0 119.5 -43.5t47.5 -120.5v-357h-146v328q0 42 -18 64.5t-50 22.5q-35 0 -59 -28t-24 -70v-317h-146v328q0 41 -18.5 64t-50.5 23q-35 0 -58.5 -28t-23.5 -70v-317h-146v511h110q6 -25 16 -75q27 43 65.5 64t84.5 21q49 0 88 -21
z" />
    <glyph glyph-name="n" unicode="n" horiz-adv-x="597" 
d="M191 436q63 85 163 85q78 0 128.5 -42t50.5 -122v-357h-146v325q0 39 -22.5 64.5t-57.5 25.5q-39 0 -67 -29.5t-28 -71.5v-314h-146v511h109z" />
    <glyph glyph-name="o" unicode="o" horiz-adv-x="602" 
d="M526.5 107q-32.5 -57 -89.5 -87t-128 -30h-16q-71 0 -128 30t-89.5 87t-32.5 134v29q0 77 32.5 134t89.5 87t128 30h16q71 0 128 -30t89.5 -87t32.5 -134v-29q0 -77 -32.5 -134zM380.5 389q-30.5 32 -79.5 32t-79.5 -32t-30.5 -93v-81q0 -61 30.5 -93t79.5 -32t79.5 32
t30.5 93v81q0 61 -30.5 93z" />
    <glyph glyph-name="p" unicode="p" horiz-adv-x="595" 
d="M196 447q56 74 144 74q60 0 108 -29t76 -88t28 -146v-11q0 -83 -26 -141t-70.5 -87t-100.5 -29q-48 0 -84.5 20t-58.5 49v-240h-146v692h115zM377 390q-27 31 -69 31t-69 -31t-27 -90v-83q0 -58 27 -89.5t69 -31.5t69 31.5t27 89.5v83q0 59 -27 90z" />
    <glyph glyph-name="q" unicode="q" horiz-adv-x="595" 
d="M323.5 10q-36.5 -20 -84.5 -20q-56 0 -100.5 29t-70.5 87t-26 141v11q0 87 28 146t76 88t108 29q55 0 98 -22.5t72 -65.5l17 26q10 17 19 29.5t15 22.5h53v-691h-146v239q-22 -29 -58.5 -49zM217 127.5q27 -31.5 69 -31.5t69 31.5t27 89.5v83q0 59 -27 90t-69 31t-69 -31
t-27 -90v-83q0 -58 27 -89.5z" />
    <glyph glyph-name="r" unicode="r" horiz-adv-x="489" 
d="M353 336q0 31 -17 53.5t-54 22.5q-35 0 -53.5 -27.5t-18.5 -68.5v-316h-144v511h108l18 -75q4 11 20.5 31t48 37t74.5 17q69 0 106.5 -43t37.5 -114q0 -15 -1.5 -30t-2.5 -21h-122v23z" />
    <glyph glyph-name="s" unicode="s" horiz-adv-x="539" 
d="M158 156q0 -35 31 -50.5t77 -15.5q40 0 71.5 12t31.5 38q0 28 -29 40t-90 21q-64 11 -105 24t-70.5 45t-29.5 89q0 52 30.5 88.5t81 55t110.5 18.5h20q53 0 100.5 -17.5t76.5 -49t29 -71.5q0 -8 -1 -14.5t-1 -7.5h-128q0 60 -92 60q-42 0 -67.5 -12t-25.5 -33
q0 -25 27.5 -35t86.5 -19q67 -11 108.5 -23.5t72.5 -45t31 -91.5q0 -91 -64 -131.5t-163 -40.5h-33q-62 0 -111 19t-76.5 54t-27.5 80l1 20h128v-7z" />
    <glyph glyph-name="t" unicode="t" horiz-adv-x="371" 
d="M290.5 -4.5q-32.5 -5.5 -57.5 -5.5q-77 0 -116 33t-39 110v278h-56v100h61l51 163h90v-163h119v-100h-119v-253q0 -40 15.5 -54t41.5 -14q12 0 31 4t31 9v-94q-20 -8 -52.5 -13.5z" />
    <glyph glyph-name="u" unicode="u" horiz-adv-x="612" 
d="M540 97.5q9 -7.5 20 -7.5q10 0 22 4t19 7v-90q-37 -21 -88 -21q-100 0 -116 73q-63 -73 -154 -73q-78 0 -128.5 42t-50.5 122v357h146v-325q0 -39 22.5 -64.5t57.5 -25.5q39 0 67 29.5t28 71.5v314h146v-391q0 -15 9 -22.5z" />
    <glyph glyph-name="v" unicode="v" horiz-adv-x="536" 
d="M185 0l-179 511h155l111 -342h5l111 342h142l-180 -511h-165z" />
    <glyph glyph-name="w" unicode="w" horiz-adv-x="820" 
d="M325 0h-163l-156 511h151l88 -316h6q26 92 40 138l51 178h146l89 -316h6q60 210 89 316h142l-156 -511h-161l-84 285h-6q-54 -190 -82 -285z" />
    <glyph glyph-name="x" unicode="x" horiz-adv-x="553" 
d="M185 264l-165 247h170l40 -64q10 -16 22.5 -36.5t28.5 -45.5h4l68 105l25 41h158l-167 -246l177 -265h-169l-104 165h-4l-35 -55l-70 -110h-158z" />
    <glyph glyph-name="y" unicode="y" horiz-adv-x="536" 
d="M257 -129.5q-54 -57.5 -130 -57.5q-53 0 -86 15v103q12 -5 31 -9.5t36 -4.5q64 0 91 93l-193 501h155l113 -321h6l106 321h144l-182 -483q-37 -100 -91 -157.5z" />
    <glyph glyph-name="z" unicode="z" horiz-adv-x="486" 
d="M36 50l218 361h-205v100h398v-49l-219 -362h227v-100h-419v50z" />
    <glyph glyph-name="braceleft" unicode="{" horiz-adv-x="347" 
d="M93.5 317.5q23.5 14.5 23.5 42.5v200q0 78 53 102t137 24v-59q-40 0 -58.5 -15.5t-20.5 -66.5l-7 -174q-2 -51 -24.5 -77t-70.5 -26v-9q48 0 70.5 -26t24.5 -77l7 -174q2 -51 20.5 -66.5t58.5 -15.5v-59q-53 0 -93 7.5t-68.5 35.5t-28.5 83v201q0 26 -23.5 41t-53.5 15
v79q30 0 53.5 14.5z" />
    <glyph glyph-name="bar" unicode="|" horiz-adv-x="250" 
d="M75 720h100v-919h-100v919z" />
    <glyph glyph-name="braceright" unicode="}" horiz-adv-x="347" 
d="M252.5 209q-23.5 -15 -23.5 -41v-201q0 -55 -28.5 -83t-68.5 -35.5t-93 -7.5v59q40 0 58.5 15.5t20.5 66.5l7 174q2 51 24.5 77t70.5 26v9q-48 0 -70.5 26t-24.5 77l-7 174q-2 51 -20.5 66.5t-58.5 15.5v59q84 0 137 -24t53 -102v-200q0 -28 23.5 -42.5t53.5 -14.5v-79
q-30 0 -53.5 -15z" />
    <glyph glyph-name="asciitilde" unicode="~" horiz-adv-x="714" 
d="M615 267.5q-24 -20.5 -60.5 -38t-78.5 -17.5q-28 0 -54 8.5t-63 24.5q-40 17 -66 25t-55 8q-42 0 -78.5 -17.5t-60.5 -38t-24 -22.5v106q0 2 24 22.5t60.5 38t78.5 17.5q28 0 54 -8.5t63 -24.5q40 -17 66 -25t55 -8q42 0 78.5 17.5t60.5 38t24 22.5v-106q0 -2 -24 -22.5z
" />
    <glyph glyph-name="uni00A0" unicode="&#xa0;" horiz-adv-x="0" 
 />
    <glyph glyph-name="exclamdown" unicode="&#xa1;" horiz-adv-x="290" 
d="M72 364v147h146v-147h-146zM57 -175l41 484h97l39 -484h-177z" />
    <glyph glyph-name="cent" unicode="&#xa2;" horiz-adv-x="571" 
d="M219 209.5q26 -33.5 70 -33.5q46 0 72.5 28.5t26.5 84.5h138q0 -97 -55.5 -151t-139.5 -61l12 -85h-101l12 85q-97 11 -153 76.5t-56 173.5v29q0 107 57.5 172.5t151.5 76.5l-12 88h101l-13 -88q54 -5 98.5 -31.5t71 -73t26.5 -107.5h-145q0 52 -23 83t-68 31t-71 -35.5
t-26 -89.5v-89q0 -50 26 -83.5z" />
    <glyph glyph-name="sterling" unicode="&#xa3;" horiz-adv-x="654" 
d="M116 397v79q0 68 29 118t81.5 77t121.5 27q65 0 117.5 -24.5t82.5 -70.5t30 -107v-18h-149v21q0 32 -24 56t-57 24q-37 0 -60.5 -22.5t-23.5 -57.5v-102h142v-118h-142l-19 -161h293v-118h-499v118h77v161h-110v118h110z" />
    <glyph glyph-name="currency" unicode="&#xa4;" horiz-adv-x="663" 
d="M94.5 418q12.5 38 35.5 65l-54 55l55 55l54 -54q27 21 66 34t79 13q42 0 80 -12.5t64 -34.5l56 56q28 -30 58 -58l-55 -55q21 -26 33 -64.5t12 -79.5t-12.5 -79.5t-34.5 -66.5l37 -37l18 -18l-54 -54l-18 18l-38 38q-27 -23 -65 -36t-81 -13q-42 0 -79.5 12t-65.5 35
q-28 -27 -55 -55l-55 55l56 55q-24 29 -36.5 66.5t-12.5 79.5t12.5 80zM197.5 258.5q20.5 -36.5 55.5 -58t77 -21.5q43 0 78.5 21.5t55.5 58t20 79.5t-20 79t-55.5 57.5t-78.5 21.5q-42 0 -77 -21.5t-55.5 -57.5t-20.5 -79t20.5 -79.5z" />
    <glyph glyph-name="yen" unicode="&#xa5;" horiz-adv-x="642" 
d="M142 448l-132 238h174q63 -123 143 -272h4q80 149 143 272h158l-132 -238h98v-78h-141l-33 -60h174v-79h-200v-231h-153v231h-196v79h170q-22 40 -34 60h-136v78h93z" />
    <glyph glyph-name="brokenbar" unicode="&#xa6;" horiz-adv-x="277" 
d="M198 686v-271h-120v271h120zM198 270v-270h-120v270h120z" />
    <glyph glyph-name="section" unicode="&#xa7;" horiz-adv-x="550" 
d="M116.5 655q64.5 41 159.5 41q93 0 155.5 -38.5t62.5 -107.5v-14h-129q0 30 -23 46.5t-65 16.5t-66.5 -14.5t-24.5 -36.5q0 -33 32 -55t99 -50q62 -27 100.5 -48.5t66 -57t27.5 -85.5q0 -49 -23.5 -87.5t-59.5 -61.5q33 -20 51.5 -54.5t18.5 -74.5q0 -78 -64.5 -118.5
t-160.5 -40.5q-93 0 -155 38t-62 108v12h129q0 -27 23.5 -44.5t64.5 -17.5q42 0 66.5 14.5t24.5 37.5q0 33 -32 54.5t-99 49.5q-61 26 -100 48t-66.5 57t-27.5 86q0 49 23 87.5t59 61.5q-32 20 -50.5 54.5t-18.5 74.5q0 78 64.5 119zM370.5 268q-20.5 22 -48.5 37.5
t-74 35.5l-42 18q-18 -9 -31 -27t-13 -41q0 -42 37.5 -68.5t106.5 -55.5q15 -6 41 -18q18 9 31 27.5t13 40.5q0 29 -20.5 51z" />
    <glyph glyph-name="dieresis" unicode="&#xa8;" horiz-adv-x="440" 
d="M180 740v-122h-121v122h121zM384 740v-122h-121v122h121z" />
    <glyph glyph-name="copyright" unicode="&#xa9;" horiz-adv-x="740" 
d="M676.5 166q-47.5 -81 -129 -128.5t-177.5 -47.5q-97 0 -178 47.5t-128.5 128.5t-47.5 178q0 96 47.5 177t129 128t177.5 47t177.5 -47.5t129 -128t47.5 -176.5q0 -97 -47.5 -178zM627 498.5q-38 68.5 -105 106.5t-152 38q-86 0 -153.5 -38t-105 -106t-37.5 -155
q0 -88 37.5 -157t104.5 -107t154 -38q85 0 152 38t105 107t38 157q0 86 -38 154.5zM311.5 229q24.5 -25 62.5 -25q43 0 63.5 23t20.5 72h85q0 -80 -46 -124.5t-118 -44.5h-9q-80 0 -130.5 48t-50.5 136v59q0 57 23.5 98.5t64.5 63t91 21.5h8q74 0 120.5 -44t46.5 -126h-88
q0 47 -21 71.5t-60 24.5q-38 0 -62.5 -25t-24.5 -71v-86q0 -46 24.5 -71z" />
    <glyph glyph-name="ordfeminine" unicode="&#xaa;" horiz-adv-x="389" 
d="M176 635q-25 0 -40 -11.5t-15 -23.5v-5h-85q-1 3 -1 11q0 39 38 64.5t98 25.5h13q66 0 100 -26t34 -70v-144q0 -10 5 -16t12 -6q11 0 25 7v-55q-24 -12 -53 -12q-65 0 -72 52q-42 -52 -104 -52q-47 0 -76.5 18.5t-29.5 71.5q0 62 50.5 83.5t155.5 21.5v20q0 46 -55 46z
M145 508q-28 -11 -28 -37q0 -20 11 -28.5t34 -8.5q25 0 47 19.5t22 48.5v17q-58 0 -86 -11z" />
    <glyph glyph-name="guillemotleft" unicode="&#xab;" horiz-adv-x="459" 
d="M47 337l121 174h62l-89 -174l89 -174h-62zM228 337l122 174h62l-89 -174l89 -174h-62z" />
    <glyph glyph-name="logicalnot" unicode="&#xac;" horiz-adv-x="600" 
d="M447 166v181h-412v121h529v-302h-117z" />
    <glyph glyph-name="uni00AD" unicode="&#xad;" horiz-adv-x="260" 
d="M253 336v-128h-253v128h253z" />
    <glyph glyph-name="registered" unicode="&#xae;" horiz-adv-x="740" 
d="M676.5 166q-47.5 -81 -129 -128.5t-177.5 -47.5q-97 0 -178 47.5t-128.5 128.5t-47.5 178q0 96 47.5 177t129 128t177.5 47t177.5 -47.5t129 -128t47.5 -176.5q0 -97 -47.5 -178zM628 499q-38 68 -105.5 106.5t-152.5 38.5q-86 0 -153.5 -38t-105 -106.5t-37.5 -155.5
q0 -88 37.5 -157t104.5 -107t154 -38q85 0 152.5 38t105.5 107t38 157q0 87 -38 155zM510 132q-31 0 -50 15.5t-19 50.5q0 52 -14 81t-51 29h-70v-171h-92v414h185q60 0 100 -24t40 -79q0 -34 -21.5 -62.5t-52.5 -34.5v-5q26 -8 46 -35.5t20 -73.5q0 -67 31 -76v-21
q-22 -8 -52 -8zM430.5 394q14.5 13 14.5 32v5q0 20 -13.5 32.5t-35.5 12.5h-90v-95h90q20 0 34.5 13z" />
    <glyph glyph-name="macron" unicode="&#xaf;" horiz-adv-x="460" 
d="M71 736h318v-74h-318v74z" />
    <glyph glyph-name="degree" unicode="&#xb0;" horiz-adv-x="400" 
d="M329.5 470.5q-20.5 -34.5 -55 -54.5t-74.5 -20q-41 0 -75.5 20t-54.5 54.5t-20 75.5q0 40 20 74.5t54.5 55t75.5 20.5q40 0 74.5 -20.5t55 -55t20.5 -74.5q0 -41 -20.5 -75.5zM254 600q-22 22 -54 22q-31 0 -53.5 -22t-22.5 -54q0 -31 22.5 -53.5t53.5 -22.5
q32 0 54 22.5t22 53.5q0 32 -22 54z" />
    <glyph glyph-name="plusminus" unicode="&#xb1;" horiz-adv-x="600" 
d="M556 382v-106h-204v-129h-105v129h-203v106h203v129h105v-129h204zM46 105h507v-105h-507v105z" />
    <glyph glyph-name="uni00B2" unicode="&#xb2;" horiz-adv-x="505" 
d="M55 490.5q13 22.5 34 40.5q23 23 79 65l29 22q36 28 36 67q0 22 -16.5 36t-41.5 14q-31 0 -44.5 -19t-13.5 -36v-14h-74q-1 4 -1 10q0 26 13 55t43.5 50t79.5 21h8q61 0 94.5 -34t33.5 -81q0 -33 -14.5 -58t-40 -47t-84.5 -67q-23 -15 -31 -26h171v-70h-273v16
q0 33 13 55.5z" />
    <glyph glyph-name="uni00B3" unicode="&#xb3;" horiz-adv-x="506" 
d="M111 530q0 -53 65 -53q32 0 49.5 13.5t17.5 39.5q0 30 -19 40t-52 10h-39v59h45q25 0 40.5 12.5t15.5 36.5q0 23 -16.5 35t-41.5 12q-24 0 -40 -13t-16 -36h-74v11q0 45 36.5 74t94.5 29h11q55 0 91 -29t36 -73q0 -57 -56 -82v-5q31 -10 48.5 -33t17.5 -58
q0 -47 -37.5 -77.5t-99.5 -30.5h-15q-64 0 -100.5 31t-36.5 80v7h75z" />
    <glyph glyph-name="acute" unicode="&#xb4;" horiz-adv-x="333" 
d="M143 720h129l1 -3l-121 -142h-101z" />
    <glyph glyph-name="uni00B5" unicode="&#xb5;" horiz-adv-x="610" 
d="M540 97.5q9 -7.5 20 -7.5q10 0 22 4t19 7v-90q-37 -21 -88 -21q-100 0 -116 73q-63 -73 -154 -73q-24 0 -42 7q9 -29 9 -54v-104h-146v672h146v-325q0 -39 22.5 -64.5t57.5 -25.5q39 0 67 29.5t28 71.5v314h146v-391q0 -15 9 -22.5z" />
    <glyph glyph-name="paragraph" unicode="&#xb6;" horiz-adv-x="526" 
d="M124.5 285q-45.5 30 -72 78t-26.5 105q0 59 29 109t79 79.5t109 29.5h273v-70h-66v-781h-75v781h-74v-781h-76v416q-55 4 -100.5 34z" />
    <glyph glyph-name="periodcentered" unicode="&#xb7;" horiz-adv-x="277" 
d="M211 362v-148h-146v148h146z" />
    <glyph glyph-name="cedilla" unicode="&#xb8;" horiz-adv-x="342" 
d="M101 -129.5q20 -12.5 61 -12.5q22 0 35.5 9.5t13.5 28.5q0 17 -12 26.5t-33 9.5h-20v51h23q116 0 116 -90q0 -50 -37 -70t-82 -20q-29 0 -58.5 7.5t-49.5 21.5l21 52q2 -1 22 -13.5z" />
    <glyph glyph-name="uni00B9" unicode="&#xb9;" horiz-adv-x="319" 
d="M40 487h90v213h-90v48q30 2 68 15.5t73 32.5h29v-309h79v-65h-249v65z" />
    <glyph glyph-name="ordmasculine" unicode="&#xba;" horiz-adv-x="367" 
d="M299.5 414.5q-42.5 -40.5 -108.5 -40.5h-11q-66 0 -108.5 40.5t-42.5 111.5v18q0 70 42.5 111t108.5 41h11q66 0 108.5 -41t42.5 -111v-18q0 -71 -42.5 -111.5zM233.5 615.5q-18.5 19.5 -48.5 19.5q-29 0 -47.5 -19.5t-18.5 -55.5v-50q0 -36 18.5 -56t47.5 -20
q30 0 48.5 20t18.5 56v50q0 36 -18.5 55.5z" />
    <glyph glyph-name="guillemotright" unicode="&#xbb;" horiz-adv-x="459" 
d="M136 337l-89 174h62l122 -174l-122 -174h-62zM318 337l-89 174h62l121 -174l-121 -174h-62z" />
    <glyph glyph-name="onequarter" unicode="&#xbc;" horiz-adv-x="745" 
d="M147 0l420 686h69l-417 -686h-72zM28 372h91v216h-92v49q31 2 69.5 15.5t74.5 32.5h29v-313h90v-66h-262v66zM611.5 284.5q11.5 28.5 17.5 51.5h35v-183h51v-65h-51v-88h-78v88h-166v65q28 45 57.5 111t44.5 118h77q-12 -54 -50.5 -125.5t-66.5 -103.5h104v82
q14 21 25.5 49.5z" />
    <glyph glyph-name="onehalf" unicode="&#xbd;" horiz-adv-x="765" 
d="M139 0l420 686h69l-417 -686h-72zM28 372h91v216h-92v49q31 2 69.5 15.5t74.5 32.5h29v-313h90v-66h-262v66zM462 71.5q13 22.5 34 40.5q23 23 79 65l29 22q36 28 36 67q0 22 -16.5 36t-41.5 14q-31 0 -44.5 -19t-13.5 -36v-14h-74q-1 4 -1 10q0 26 13 55t43.5 50
t79.5 21h8q61 0 94.5 -34t33.5 -81q0 -33 -14.5 -58t-40 -47t-84.5 -67q-23 -15 -31 -26h171v-70h-273v16q0 33 13 55.5z" />
    <glyph glyph-name="threequarters" unicode="&#xbe;" horiz-adv-x="755" 
d="M112 419q0 -53 65 -53q32 0 49.5 13.5t17.5 39.5q0 30 -19 40t-52 10h-39v59h45q25 0 40.5 12.5t15.5 36.5q0 23 -16.5 35t-41.5 12q-24 0 -40 -13t-16 -36h-74v11q0 45 36.5 74t94.5 29h11q55 0 91 -29t36 -73q0 -57 -56 -82v-5q31 -10 48.5 -33t17.5 -58
q0 -47 -37.5 -77.5t-99.5 -30.5h-15q-64 0 -100.5 31t-36.5 80v7h75zM150 0l420 686h69l-417 -686h-72zM611.5 284.5q11.5 28.5 17.5 51.5h35v-183h51v-65h-51v-88h-78v88h-166v65q28 45 57.5 111t44.5 118h77q-12 -54 -50.5 -125.5t-66.5 -103.5h104v82q14 21 25.5 49.5z
" />
    <glyph glyph-name="questiondown" unicode="&#xbf;" horiz-adv-x="572" 
d="M208 364v147h147v-147h-147zM349 310v-58q0 -32 -17 -55.5t-53 -57.5q-36 -33 -54.5 -59t-18.5 -62q0 -40 22.5 -64.5t67.5 -24.5q53 0 73.5 30t20.5 68l-1 32h141q3 -27 3 -37q0 -52 -29.5 -100t-83.5 -77.5t-123 -29.5h-22q-70 0 -121 28t-77.5 75t-26.5 102
q0 46 15.5 80t36.5 55.5t54 47.5q30 25 43.5 40t13.5 35v32h136z" />
    <glyph glyph-name="Agrave" unicode="&#xc0;" horiz-adv-x="686" 
d="M187 892l1 3h128l93 -145h-102zM199 135l-48 -135h-149l249 686h184l249 -686h-162l-50 135h-273zM241 252h190q-38 113 -92 269h-5z" />
    <glyph glyph-name="Aacute" unicode="&#xc1;" horiz-adv-x="686" 
d="M361 895h129l1 -3l-121 -142h-101zM199 135l-48 -135h-149l249 686h184l249 -686h-162l-50 135h-273zM241 252h190q-38 113 -92 269h-5z" />
    <glyph glyph-name="Acircumflex" unicode="&#xc2;" horiz-adv-x="686" 
d="M395 895l137 -145h-105l-84 83l-85 -83h-104l138 145h103zM199 135l-48 -135h-149l249 686h184l249 -686h-162l-50 135h-273zM241 252h190q-38 113 -92 269h-5z" />
    <glyph glyph-name="Atilde" unicode="&#xc3;" horiz-adv-x="686" 
d="M530.5 813.5q-15.5 -28.5 -44.5 -46.5t-66 -18q-22 0 -43.5 5t-49.5 15q-26 9 -43 13t-35 4q-41 0 -52 -37h-66q0 30 16 59t45 47t66 18q22 0 43 -5t49 -15q29 -10 45 -14t33 -4q20 0 34 10t19 28h65q0 -31 -15.5 -59.5zM199 135l-48 -135h-149l249 686h184l249 -686
h-162l-50 135h-273zM241 252h190q-38 113 -92 269h-5z" />
    <glyph glyph-name="Adieresis" unicode="&#xc4;" horiz-adv-x="686" 
d="M297 871v-122h-121v122h121zM501 871v-122h-121v122h121zM199 135l-48 -135h-149l249 686h184l249 -686h-162l-50 135h-273zM241 252h190q-38 113 -92 269h-5z" />
    <glyph glyph-name="Aring" unicode="&#xc5;" horiz-adv-x="686" 
d="M275.5 901.5q29.5 29.5 71.5 29.5t71.5 -29.5t29.5 -71.5t-29.5 -71.5t-71.5 -29.5t-71.5 29.5t-29.5 71.5t29.5 71.5zM316 799q13 -13 31 -13t31 13t13 31t-13 31t-31 13t-31 -13t-13 -31t13 -31zM199 135l-48 -135h-149l249 686h184l249 -686h-162l-50 135h-273z
M241 252h190q-38 113 -92 269h-5z" />
    <glyph glyph-name="AE" unicode="&#xc6;" horiz-adv-x="1004" 
d="M215 135q-46 -90 -68 -135h-147l344 686h616l-16 -124h-389l34 -151h333v-121h-307q24 -98 38 -164h294l17 -126h-446l-30 135h-273zM326 361l-53 -109h191q-18 86 -26 128l-29 141h-5z" />
    <glyph glyph-name="Ccedilla" unicode="&#xc7;" horiz-adv-x="683" 
d="M251 154.5q41 -41.5 104 -41.5q71 0 105 38.5t34 118.5h141q0 -88 -35.5 -151.5t-97.5 -96t-140 -32.5h-14q-86 0 -154 35t-107 103.5t-39 165.5v98q0 94 39 163t106.5 105t150.5 36h14q80 0 142.5 -31.5t98.5 -95t36 -155.5h-147q0 78 -34.5 118.5t-99.5 40.5
q-63 0 -103.5 -41.5t-40.5 -117.5v-142q0 -76 41 -117.5zM277 -129.5q20 -12.5 61 -12.5q22 0 35.5 9.5t13.5 28.5q0 17 -12 26.5t-33 9.5h-20v51h23q116 0 116 -90q0 -50 -37 -70t-82 -20q-29 0 -58.5 7.5t-49.5 21.5l21 52q2 -1 22 -13.5z" />
    <glyph glyph-name="Egrave" unicode="&#xc8;" 
d="M157 892l1 3h128l93 -145h-102zM72 686h483l-17 -123h-314v-150h293v-123h-293v-167h317l17 -123h-486v686z" />
    <glyph glyph-name="Eacute" unicode="&#xc9;" 
d="M355 895h129l1 -3l-121 -142h-101zM72 686h483l-17 -123h-314v-150h293v-123h-293v-167h317l17 -123h-486v686z" />
    <glyph glyph-name="Ecircumflex" unicode="&#xca;" 
d="M364 895l137 -145h-105l-84 83l-85 -83h-104l138 145h103zM72 686h483l-17 -123h-314v-150h293v-123h-293v-167h317l17 -123h-486v686z" />
    <glyph glyph-name="Edieresis" unicode="&#xcb;" 
d="M273 872v-122h-121v122h121zM477 872v-122h-121v122h121zM72 686h483l-17 -123h-314v-150h293v-123h-293v-167h317l17 -123h-486v686z" />
    <glyph glyph-name="Igrave" unicode="&#xcc;" horiz-adv-x="461" 
d="M72 892l1 3h128l93 -145h-102zM388 686v-123h-80v-440h80v-123h-316v123h81v440h-81v123h316z" />
    <glyph glyph-name="Iacute" unicode="&#xcd;" horiz-adv-x="461" 
d="M261 895h129l1 -3l-121 -142h-101zM388 686v-123h-80v-440h80v-123h-316v123h81v440h-81v123h316z" />
    <glyph glyph-name="Icircumflex" unicode="&#xce;" horiz-adv-x="461" 
d="M283 895l137 -145h-105l-84 83l-85 -83h-104l138 145h103zM388 686v-123h-80v-440h80v-123h-316v123h81v440h-81v123h316z" />
    <glyph glyph-name="Idieresis" unicode="&#xcf;" horiz-adv-x="461" 
d="M191 872v-122h-121v122h121zM395 872v-122h-121v122h121zM388 686v-123h-80v-440h80v-123h-316v123h81v440h-81v123h316z" />
    <glyph glyph-name="Eth" unicode="&#xd0;" horiz-adv-x="686" 
d="M73 383v303h274q81 0 147.5 -37.5t105 -106.5t38.5 -160v-78q0 -91 -38.5 -160t-105 -106.5t-147.5 -37.5h-274v303h-84v80h84zM445.5 173q34.5 49 34.5 144v70q0 85 -37 130.5t-106 45.5h-110v-180h112v-80h-112v-179h110q74 0 108.5 49z" />
    <glyph glyph-name="Ntilde" unicode="&#xd1;" horiz-adv-x="691" 
d="M539.5 813.5q-15.5 -28.5 -44.5 -46.5t-66 -18q-22 0 -43.5 5t-49.5 15q-26 9 -43 13t-35 4q-41 0 -52 -37h-66q0 30 16 59t45 47t66 18q22 0 43 -5t49 -15q29 -10 45 -14t33 -4q20 0 34 10t19 28h65q0 -31 -15.5 -59.5zM272 316q-11 16 -30 47.5t-25 41.5l-4 -3v-402
h-141v686h131l216 -318l30 -47q16 -28 25 -41l3 3v403h141v-686h-131z" />
    <glyph glyph-name="Ograve" unicode="&#xd2;" horiz-adv-x="708" 
d="M187 892l1 3h128l93 -145h-102zM619 131q-41 -69 -110.5 -105t-154.5 -36t-154.5 36t-110.5 105t-41 163v98q0 94 41 163t110.5 105t154.5 36t154.5 -36t110.5 -105t41 -163v-98q0 -94 -41 -163zM458 531.5q-40 41.5 -104 41.5t-104 -41.5t-40 -117.5v-142
q0 -76 40 -117.5t104 -41.5t104 41.5t40 117.5v142q0 76 -40 117.5z" />
    <glyph glyph-name="Oacute" unicode="&#xd3;" horiz-adv-x="708" 
d="M396 895h129l1 -3l-121 -142h-101zM619 131q-41 -69 -110.5 -105t-154.5 -36t-154.5 36t-110.5 105t-41 163v98q0 94 41 163t110.5 105t154.5 36t154.5 -36t110.5 -105t41 -163v-98q0 -94 -41 -163zM458 531.5q-40 41.5 -104 41.5t-104 -41.5t-40 -117.5v-142
q0 -76 40 -117.5t104 -41.5t104 41.5t40 117.5v142q0 76 -40 117.5z" />
    <glyph glyph-name="Ocircumflex" unicode="&#xd4;" horiz-adv-x="708" 
d="M403 895l137 -145h-105l-84 83l-85 -83h-104l138 145h103zM619 131q-41 -69 -110.5 -105t-154.5 -36t-154.5 36t-110.5 105t-41 163v98q0 94 41 163t110.5 105t154.5 36t154.5 -36t110.5 -105t41 -163v-98q0 -94 -41 -163zM458 531.5q-40 41.5 -104 41.5t-104 -41.5
t-40 -117.5v-142q0 -76 40 -117.5t104 -41.5t104 41.5t40 117.5v142q0 76 -40 117.5z" />
    <glyph glyph-name="Otilde" unicode="&#xd5;" horiz-adv-x="708" 
d="M544.5 813.5q-15.5 -28.5 -44.5 -46.5t-66 -18q-22 0 -43.5 5t-49.5 15q-26 9 -43 13t-35 4q-41 0 -52 -37h-66q0 30 16 59t45 47t66 18q22 0 43 -5t49 -15q29 -10 45 -14t33 -4q20 0 34 10t19 28h65q0 -31 -15.5 -59.5zM619 131q-41 -69 -110.5 -105t-154.5 -36
t-154.5 36t-110.5 105t-41 163v98q0 94 41 163t110.5 105t154.5 36t154.5 -36t110.5 -105t41 -163v-98q0 -94 -41 -163zM458 531.5q-40 41.5 -104 41.5t-104 -41.5t-40 -117.5v-142q0 -76 40 -117.5t104 -41.5t104 41.5t40 117.5v142q0 76 -40 117.5z" />
    <glyph glyph-name="Odieresis" unicode="&#xd6;" horiz-adv-x="708" 
d="M315 872v-122h-121v122h121zM519 872v-122h-121v122h121zM619 131q-41 -69 -110.5 -105t-154.5 -36t-154.5 36t-110.5 105t-41 163v98q0 94 41 163t110.5 105t154.5 36t154.5 -36t110.5 -105t41 -163v-98q0 -94 -41 -163zM458 531.5q-40 41.5 -104 41.5t-104 -41.5
t-40 -117.5v-142q0 -76 40 -117.5t104 -41.5t104 41.5t40 117.5v142q0 76 -40 117.5z" />
    <glyph glyph-name="multiply" unicode="&#xd7;" horiz-adv-x="600" 
d="M444 474l73 -75l-144 -144l144 -143l-73 -75l-58 57l-86 86l-145 -143l-73 75l144 143l-144 144l73 75l145 -144z" />
    <glyph glyph-name="Oslash" unicode="&#xd8;" horiz-adv-x="708" 
d="M619 131q-41 -69 -110.5 -105t-154.5 -36q-84 0 -151 34l-54 -89h-86l79 131q-45 39 -69.5 97t-24.5 131v98q0 94 41 163t110.5 105t154.5 36q81 0 149 -33l55 91h86l-80 -132q46 -40 71 -98.5t25 -131.5v-98q0 -94 -41 -163zM222 199l213 351q-35 23 -81 23
q-64 0 -104 -41.5t-40 -117.5v-142q0 -43 12 -73zM484 490l-213 -354q35 -23 83 -23q64 0 104 41.5t40 117.5v142q0 42 -14 76z" />
    <glyph glyph-name="Ugrave" unicode="&#xd9;" horiz-adv-x="673" 
d="M170 892l1 3h128l93 -145h-102zM577 98q-32 -52 -91 -80t-136 -28h-28q-77 0 -135.5 28t-90.5 80t-32 120v468h154v-465q0 -47 33.5 -78t85.5 -31q53 0 85.5 30.5t32.5 78.5v465h154v-468q0 -68 -32 -120z" />
    <glyph glyph-name="Uacute" unicode="&#xda;" horiz-adv-x="673" 
d="M377 895h129l1 -3l-121 -142h-101zM577 98q-32 -52 -91 -80t-136 -28h-28q-77 0 -135.5 28t-90.5 80t-32 120v468h154v-465q0 -47 33.5 -78t85.5 -31q53 0 85.5 30.5t32.5 78.5v465h154v-468q0 -68 -32 -120z" />
    <glyph glyph-name="Ucircumflex" unicode="&#xdb;" horiz-adv-x="673" 
d="M390 895l137 -145h-105l-84 83l-85 -83h-104l138 145h103zM577 98q-32 -52 -91 -80t-136 -28h-28q-77 0 -135.5 28t-90.5 80t-32 120v468h154v-465q0 -47 33.5 -78t85.5 -31q53 0 85.5 30.5t32.5 78.5v465h154v-468q0 -68 -32 -120z" />
    <glyph glyph-name="Udieresis" unicode="&#xdc;" horiz-adv-x="673" 
d="M296 872v-122h-121v122h121zM500 872v-122h-121v122h121zM577 98q-32 -52 -91 -80t-136 -28h-28q-77 0 -135.5 28t-90.5 80t-32 120v468h154v-465q0 -47 33.5 -78t85.5 -31q53 0 85.5 30.5t32.5 78.5v465h154v-468q0 -68 -32 -120z" />
    <glyph glyph-name="Yacute" unicode="&#xdd;" horiz-adv-x="637" 
d="M367 895h129l1 -3l-121 -142h-101zM396 0h-154v263l-235 423h174l143 -272h5l143 272h158l-234 -423v-263z" />
    <glyph glyph-name="Thorn" unicode="&#xde;" horiz-adv-x="634" 
d="M226 0h-154v686h154v-114h177q57 0 104 -26.5t75 -73.5t28 -105v-8q0 -58 -28 -105t-75 -73.5t-104 -26.5h-177v-154zM226 272h146q39 0 61 28.5t22 68.5q0 34 -24 57.5t-59 23.5h-146v-178z" />
    <glyph glyph-name="germandbls" unicode="&#xdf;" horiz-adv-x="622" 
d="M555 98.5q-30 -48.5 -83 -73.5t-120 -25h-73v100h51q47 0 78.5 33.5t31.5 90.5q0 48 -31.5 77.5t-78.5 29.5h-51v100h46q40 0 67 29t27 74q0 42 -27 68t-67 26q-43 0 -68.5 -29t-25.5 -73v-592h-146v477h-60v100h60q2 66 36 115.5t89 75.5t119 26q60 0 113.5 -20t86 -60
t32.5 -98q0 -52 -27 -95.5t-70 -61.5l1 -5q53 -19 86.5 -68t33.5 -106q0 -67 -30 -115.5z" />
    <glyph glyph-name="agrave" unicode="&#xe0;" 
d="M122 717l1 3h128l93 -145h-102zM357.5 400q-21.5 21 -69.5 21q-28 0 -48 -9.5t-30.5 -23.5t-10.5 -26v-8h-141q-2 12 -2 18q0 43 28.5 77t79.5 53t117 19h21q108 0 164 -42.5t56 -116.5v-236q0 -18 8.5 -27t20.5 -9q10 0 22 4t19 7v-90q-37 -21 -88 -21q-55 0 -84 22.5
t-34 63.5q-70 -86 -172 -86q-76 0 -125 31t-49 118q0 71 40.5 108.5t112.5 50.5t186 13v34q0 34 -21.5 55zM237.5 210.5q-46.5 -18.5 -46.5 -60.5q0 -33 18.5 -46.5t56.5 -13.5q26 0 52 14t43.5 40t17.5 58v27q-95 0 -141.5 -18.5z" />
    <glyph glyph-name="aacute" unicode="&#xe1;" 
d="M338 720h129l1 -3l-121 -142h-101zM357.5 400q-21.5 21 -69.5 21q-28 0 -48 -9.5t-30.5 -23.5t-10.5 -26v-8h-141q-2 12 -2 18q0 43 28.5 77t79.5 53t117 19h21q108 0 164 -42.5t56 -116.5v-236q0 -18 8.5 -27t20.5 -9q10 0 22 4t19 7v-90q-37 -21 -88 -21
q-55 0 -84 22.5t-34 63.5q-70 -86 -172 -86q-76 0 -125 31t-49 118q0 71 40.5 108.5t112.5 50.5t186 13v34q0 34 -21.5 55zM237.5 210.5q-46.5 -18.5 -46.5 -60.5q0 -33 18.5 -46.5t56.5 -13.5q26 0 52 14t43.5 40t17.5 58v27q-95 0 -141.5 -18.5z" />
    <glyph glyph-name="acircumflex" unicode="&#xe2;" 
d="M345 720l137 -145h-105l-84 83l-85 -83h-104l138 145h103zM357.5 400q-21.5 21 -69.5 21q-28 0 -48 -9.5t-30.5 -23.5t-10.5 -26v-8h-141q-2 12 -2 18q0 43 28.5 77t79.5 53t117 19h21q108 0 164 -42.5t56 -116.5v-236q0 -18 8.5 -27t20.5 -9q10 0 22 4t19 7v-90
q-37 -21 -88 -21q-55 0 -84 22.5t-34 63.5q-70 -86 -172 -86q-76 0 -125 31t-49 118q0 71 40.5 108.5t112.5 50.5t186 13v34q0 34 -21.5 55zM237.5 210.5q-46.5 -18.5 -46.5 -60.5q0 -33 18.5 -46.5t56.5 -13.5q26 0 52 14t43.5 40t17.5 58v27q-95 0 -141.5 -18.5z" />
    <glyph glyph-name="atilde" unicode="&#xe3;" 
d="M485.5 660.5q-15.5 -28.5 -44.5 -46.5t-66 -18q-22 0 -43.5 5t-49.5 15q-26 9 -43 13t-35 4q-41 0 -52 -37h-66q0 30 16 59t45 47t66 18q22 0 43 -5t49 -15q29 -10 45 -14t33 -4q20 0 34 10t19 28h65q0 -31 -15.5 -59.5zM357.5 400q-21.5 21 -69.5 21q-28 0 -48 -9.5
t-30.5 -23.5t-10.5 -26v-8h-141q-2 12 -2 18q0 43 28.5 77t79.5 53t117 19h21q108 0 164 -42.5t56 -116.5v-236q0 -18 8.5 -27t20.5 -9q10 0 22 4t19 7v-90q-37 -21 -88 -21q-55 0 -84 22.5t-34 63.5q-70 -86 -172 -86q-76 0 -125 31t-49 118q0 71 40.5 108.5t112.5 50.5
t186 13v34q0 34 -21.5 55zM237.5 210.5q-46.5 -18.5 -46.5 -60.5q0 -33 18.5 -46.5t56.5 -13.5q26 0 52 14t43.5 40t17.5 58v27q-95 0 -141.5 -18.5z" />
    <glyph glyph-name="adieresis" unicode="&#xe4;" 
d="M249 720v-122h-121v122h121zM453 720v-122h-121v122h121zM357.5 400q-21.5 21 -69.5 21q-28 0 -48 -9.5t-30.5 -23.5t-10.5 -26v-8h-141q-2 12 -2 18q0 43 28.5 77t79.5 53t117 19h21q108 0 164 -42.5t56 -116.5v-236q0 -18 8.5 -27t20.5 -9q10 0 22 4t19 7v-90
q-37 -21 -88 -21q-55 0 -84 22.5t-34 63.5q-70 -86 -172 -86q-76 0 -125 31t-49 118q0 71 40.5 108.5t112.5 50.5t186 13v34q0 34 -21.5 55zM237.5 210.5q-46.5 -18.5 -46.5 -60.5q0 -33 18.5 -46.5t56.5 -13.5q26 0 52 14t43.5 40t17.5 58v27q-95 0 -141.5 -18.5z" />
    <glyph glyph-name="aring" unicode="&#xe5;" 
d="M219.5 728.5q29.5 29.5 71.5 29.5t71.5 -29.5t29.5 -71.5t-29.5 -71.5t-71.5 -29.5t-71.5 29.5t-29.5 71.5t29.5 71.5zM260 626q13 -13 31 -13t31 13t13 31t-13 31t-31 13t-31 -13t-13 -31t13 -31zM357.5 400q-21.5 21 -69.5 21q-28 0 -48 -9.5t-30.5 -23.5t-10.5 -26v-8
h-141q-2 12 -2 18q0 43 28.5 77t79.5 53t117 19h21q108 0 164 -42.5t56 -116.5v-236q0 -18 8.5 -27t20.5 -9q10 0 22 4t19 7v-90q-37 -21 -88 -21q-55 0 -84 22.5t-34 63.5q-70 -86 -172 -86q-76 0 -125 31t-49 118q0 71 40.5 108.5t112.5 50.5t186 13v34q0 34 -21.5 55z
M237.5 210.5q-46.5 -18.5 -46.5 -60.5q0 -33 18.5 -46.5t56.5 -13.5q26 0 52 14t43.5 40t17.5 58v27q-95 0 -141.5 -18.5z" />
    <glyph glyph-name="ae" unicode="&#xe6;" horiz-adv-x="918" 
d="M553.5 125.5q25.5 -37.5 83.5 -37.5q54 0 76.5 31.5t22.5 71.5h136q0 -59 -28.5 -104.5t-81 -71t-121.5 -25.5h-10q-64 0 -115.5 23t-85.5 66q-33 -42 -89.5 -65.5t-119.5 -23.5q-78 0 -129.5 31.5t-51.5 117.5q0 71 40.5 108.5t112.5 50.5t186 13v38q0 33 -20.5 54.5
t-70.5 21.5q-46 0 -67.5 -21t-21.5 -42v-8h-141q-2 12 -2 18q0 43 28.5 77t79.5 53t117 19h21q112 0 167 -49q63 49 157 49h16q70 0 122.5 -28t80.5 -78.5t28 -116.5v-67h-345q0 -68 25.5 -105.5zM559.5 393q-26.5 -30 -30.5 -82h200v13q0 45 -28 72t-69 27q-46 0 -72.5 -30
zM237.5 210.5q-46.5 -18.5 -46.5 -60.5q0 -34 21 -48t61 -14q43 0 74.5 30t31.5 79v32q-95 0 -141.5 -18.5z" />
    <glyph glyph-name="ccedilla" unicode="&#xe7;" horiz-adv-x="571" 
d="M219 123.5q26 -33.5 70 -33.5q46 0 72.5 28.5t26.5 84.5h138q0 -71 -30.5 -119t-80.5 -71t-110 -23h-16q-112 0 -178 66.5t-66 184.5v29q0 78 31.5 134.5t86.5 86.5t126 30h16q59 0 109.5 -25.5t81 -74t30.5 -114.5h-145q0 52 -23 83t-68 31t-71 -35.5t-26 -89.5v-89
q0 -50 26 -83.5zM218 -129.5q20 -12.5 61 -12.5q22 0 35.5 9.5t13.5 28.5q0 17 -12 26.5t-33 9.5h-20v51h23q116 0 116 -90q0 -50 -37 -70t-82 -20q-29 0 -58.5 7.5t-49.5 21.5l21 52q2 -1 22 -13.5z" />
    <glyph glyph-name="egrave" unicode="&#xe8;" horiz-adv-x="588" 
d="M130 717l1 3h128l93 -145h-102zM510 78.5q-32 -45.5 -84.5 -67t-114.5 -21.5h-16q-71 0 -128 30t-89.5 86.5t-32.5 134.5v29q0 77 33 134t89.5 87t127.5 30h16q62 0 115 -25.5t85 -74t32 -114.5v-76h-350v-24q0 -50 29.5 -83.5t80.5 -33.5q46 0 72.5 25.5t26.5 75.5h140
q0 -67 -32 -112.5zM224.5 390q-27.5 -31 -31.5 -79h202q0 51 -23.5 80.5t-75.5 29.5q-44 0 -71.5 -31z" />
    <glyph glyph-name="eacute" unicode="&#xe9;" horiz-adv-x="588" 
d="M339 720h129l1 -3l-121 -142h-101zM510 78.5q-32 -45.5 -84.5 -67t-114.5 -21.5h-16q-71 0 -128 30t-89.5 86.5t-32.5 134.5v29q0 77 33 134t89.5 87t127.5 30h16q62 0 115 -25.5t85 -74t32 -114.5v-76h-350v-24q0 -50 29.5 -83.5t80.5 -33.5q46 0 72.5 25.5t26.5 75.5
h140q0 -67 -32 -112.5zM224.5 390q-27.5 -31 -31.5 -79h202q0 51 -23.5 80.5t-75.5 29.5q-44 0 -71.5 -31z" />
    <glyph glyph-name="ecircumflex" unicode="&#xea;" horiz-adv-x="588" 
d="M353 720l137 -145h-105l-84 83l-85 -83h-104l138 145h103zM510 78.5q-32 -45.5 -84.5 -67t-114.5 -21.5h-16q-71 0 -128 30t-89.5 86.5t-32.5 134.5v29q0 77 33 134t89.5 87t127.5 30h16q62 0 115 -25.5t85 -74t32 -114.5v-76h-350v-24q0 -50 29.5 -83.5t80.5 -33.5
q46 0 72.5 25.5t26.5 75.5h140q0 -67 -32 -112.5zM224.5 390q-27.5 -31 -31.5 -79h202q0 51 -23.5 80.5t-75.5 29.5q-44 0 -71.5 -31z" />
    <glyph glyph-name="edieresis" unicode="&#xeb;" horiz-adv-x="588" 
d="M259 720v-122h-121v122h121zM463 720v-122h-121v122h121zM510 78.5q-32 -45.5 -84.5 -67t-114.5 -21.5h-16q-71 0 -128 30t-89.5 86.5t-32.5 134.5v29q0 77 33 134t89.5 87t127.5 30h16q62 0 115 -25.5t85 -74t32 -114.5v-76h-350v-24q0 -50 29.5 -83.5t80.5 -33.5
q46 0 72.5 25.5t26.5 75.5h140q0 -67 -32 -112.5zM224.5 390q-27.5 -31 -31.5 -79h202q0 51 -23.5 80.5t-75.5 29.5q-44 0 -71.5 -31z" />
    <glyph glyph-name="igrave" unicode="&#xec;" horiz-adv-x="278" 
d="M-16 717l1 3h128l93 -145h-102zM66 511h146v-511h-146v511z" />
    <glyph glyph-name="iacute" unicode="&#xed;" horiz-adv-x="278" 
d="M162 720h129l1 -3l-121 -142h-101zM66 511h146v-511h-146v511z" />
    <glyph glyph-name="icircumflex" unicode="&#xee;" horiz-adv-x="278" 
d="M192 720l137 -145h-105l-84 83l-85 -83h-104l138 145h103zM66 511h146v-511h-146v511z" />
    <glyph glyph-name="idieresis" unicode="&#xef;" horiz-adv-x="278" 
d="M98 720v-122h-121v122h121zM302 720v-122h-121v122h121zM66 511h146v-511h-146v511z" />
    <glyph glyph-name="eth" unicode="&#xf0;" horiz-adv-x="614" 
d="M528.5 106.5q-32.5 -56.5 -89.5 -86.5t-128 -30h-16q-71 0 -128 30t-89.5 87t-32.5 134v29q0 77 33.5 132t90.5 83.5t128 28.5q-24 38 -60 78l-79 -37l-47 42l84 40q-40 34 -85 55q0 3 28 16t35 16q15 5 24 10q47 -21 94 -50l83 38l43 -42q-5 -2 -29 -14l-44 -20
q96 -76 156.5 -174.5t60.5 -201.5v-29q0 -78 -32.5 -134.5zM382.5 389q-30.5 32 -79.5 32t-79.5 -32t-30.5 -93v-81q0 -61 30.5 -93t79.5 -32t79.5 32t30.5 93v81q0 61 -30.5 93z" />
    <glyph glyph-name="ntilde" unicode="&#xf1;" 
d="M499.5 660.5q-15.5 -28.5 -44.5 -46.5t-66 -18q-22 0 -43.5 5t-49.5 15q-26 9 -43 13t-35 4q-41 0 -52 -37h-66q0 30 16 59t45 47t66 18q22 0 43 -5t49 -15q29 -10 45 -14t33 -4q20 0 34 10t19 28h65q0 -31 -15.5 -59.5zM191 436q63 85 163 85q78 0 128.5 -42t50.5 -122
v-357h-146v325q0 39 -22.5 64.5t-57.5 25.5q-39 0 -67 -29.5t-28 -71.5v-314h-146v511h109z" />
    <glyph glyph-name="ograve" unicode="&#xf2;" horiz-adv-x="606" 
d="M131 717l1 3h128l93 -145h-102zM528.5 107q-32.5 -57 -89.5 -87t-128 -30h-16q-71 0 -128 30t-89.5 87t-32.5 134v29q0 77 32.5 134t89.5 87t128 30h16q71 0 128 -30t89.5 -87t32.5 -134v-29q0 -77 -32.5 -134zM382.5 389q-30.5 32 -79.5 32t-79.5 -32t-30.5 -93v-81
q0 -61 30.5 -93t79.5 -32t79.5 32t30.5 93v81q0 61 -30.5 93z" />
    <glyph glyph-name="oacute" unicode="&#xf3;" horiz-adv-x="606" 
d="M346 720h129l1 -3l-121 -142h-101zM528.5 107q-32.5 -57 -89.5 -87t-128 -30h-16q-71 0 -128 30t-89.5 87t-32.5 134v29q0 77 32.5 134t89.5 87t128 30h16q71 0 128 -30t89.5 -87t32.5 -134v-29q0 -77 -32.5 -134zM382.5 389q-30.5 32 -79.5 32t-79.5 -32t-30.5 -93v-81
q0 -61 30.5 -93t79.5 -32t79.5 32t30.5 93v81q0 61 -30.5 93z" />
    <glyph glyph-name="ocircumflex" unicode="&#xf4;" horiz-adv-x="606" 
d="M353 720l137 -145h-105l-84 83l-85 -83h-104l138 145h103zM528.5 107q-32.5 -57 -89.5 -87t-128 -30h-16q-71 0 -128 30t-89.5 87t-32.5 134v29q0 77 32.5 134t89.5 87t128 30h16q71 0 128 -30t89.5 -87t32.5 -134v-29q0 -77 -32.5 -134zM382.5 389q-30.5 32 -79.5 32
t-79.5 -32t-30.5 -93v-81q0 -61 30.5 -93t79.5 -32t79.5 32t30.5 93v81q0 61 -30.5 93z" />
    <glyph glyph-name="otilde" unicode="&#xf5;" horiz-adv-x="606" 
d="M494.5 660.5q-15.5 -28.5 -44.5 -46.5t-66 -18q-22 0 -43.5 5t-49.5 15q-26 9 -43 13t-35 4q-41 0 -52 -37h-66q0 30 16 59t45 47t66 18q22 0 43 -5t49 -15q29 -10 45 -14t33 -4q20 0 34 10t19 28h65q0 -31 -15.5 -59.5zM528.5 107q-32.5 -57 -89.5 -87t-128 -30h-16
q-71 0 -128 30t-89.5 87t-32.5 134v29q0 77 32.5 134t89.5 87t128 30h16q71 0 128 -30t89.5 -87t32.5 -134v-29q0 -77 -32.5 -134zM382.5 389q-30.5 32 -79.5 32t-79.5 -32t-30.5 -93v-81q0 -61 30.5 -93t79.5 -32t79.5 32t30.5 93v81q0 61 -30.5 93z" />
    <glyph glyph-name="odieresis" unicode="&#xf6;" horiz-adv-x="606" 
d="M260 720v-122h-121v122h121zM464 720v-122h-121v122h121zM528.5 107q-32.5 -57 -89.5 -87t-128 -30h-16q-71 0 -128 30t-89.5 87t-32.5 134v29q0 77 32.5 134t89.5 87t128 30h16q71 0 128 -30t89.5 -87t32.5 -134v-29q0 -77 -32.5 -134zM382.5 389q-30.5 32 -79.5 32
t-79.5 -32t-30.5 -93v-81q0 -61 30.5 -93t79.5 -32t79.5 32t30.5 93v81q0 61 -30.5 93z" />
    <glyph glyph-name="divide" unicode="&#xf7;" horiz-adv-x="600" 
d="M353 478v-109h-105v109h105zM44 309h512v-106h-512v106zM353 142v-108h-105v108h105z" />
    <glyph glyph-name="oslash" unicode="&#xf8;" horiz-adv-x="606" 
d="M528.5 107q-32.5 -57 -89.5 -87t-128 -30h-16q-61 0 -109 21l-42 -66h-75q44 70 62 98q-41 33 -63.5 83.5t-22.5 114.5v29q0 77 32.5 134t89.5 87t128 30h16q56 0 108 -21l43 68h75l-63 -100q41 -33 64 -83.5t23 -114.5v-29q0 -77 -32.5 -134zM264 254l96 152
q-24 15 -57 15q-49 0 -79.5 -32t-30.5 -93v-81q0 -36 10 -59zM403 355l-158 -251q22 -14 58 -14q49 0 79.5 32t30.5 93v81q0 32 -10 59z" />
    <glyph glyph-name="ugrave" unicode="&#xf9;" horiz-adv-x="611" 
d="M132 717l1 3h128l93 -145h-102zM540 97.5q9 -7.5 20 -7.5q10 0 22 4t19 7v-90q-37 -21 -88 -21q-100 0 -116 73q-63 -73 -154 -73q-78 0 -128.5 42t-50.5 122v357h146v-325q0 -39 22.5 -64.5t57.5 -25.5q39 0 67 29.5t28 71.5v314h146v-391q0 -15 9 -22.5z" />
    <glyph glyph-name="uacute" unicode="&#xfa;" horiz-adv-x="611" 
d="M335 720h129l1 -3l-121 -142h-101zM540 97.5q9 -7.5 20 -7.5q10 0 22 4t19 7v-90q-37 -21 -88 -21q-100 0 -116 73q-63 -73 -154 -73q-78 0 -128.5 42t-50.5 122v357h146v-325q0 -39 22.5 -64.5t57.5 -25.5q39 0 67 29.5t28 71.5v314h146v-391q0 -15 9 -22.5z" />
    <glyph glyph-name="ucircumflex" unicode="&#xfb;" horiz-adv-x="611" 
d="M348 720l137 -145h-105l-84 83l-85 -83h-104l138 145h103zM540 97.5q9 -7.5 20 -7.5q10 0 22 4t19 7v-90q-37 -21 -88 -21q-100 0 -116 73q-63 -73 -154 -73q-78 0 -128.5 42t-50.5 122v357h146v-325q0 -39 22.5 -64.5t57.5 -25.5q39 0 67 29.5t28 71.5v314h146v-391
q0 -15 9 -22.5z" />
    <glyph glyph-name="udieresis" unicode="&#xfc;" horiz-adv-x="611" 
d="M256 720v-122h-121v122h121zM460 720v-122h-121v122h121zM540 97.5q9 -7.5 20 -7.5q10 0 22 4t19 7v-90q-37 -21 -88 -21q-100 0 -116 73q-63 -73 -154 -73q-78 0 -128.5 42t-50.5 122v357h146v-325q0 -39 22.5 -64.5t57.5 -25.5q39 0 67 29.5t28 71.5v314h146v-391
q0 -15 9 -22.5z" />
    <glyph glyph-name="yacute" unicode="&#xfd;" horiz-adv-x="545" 
d="M316 720h129l1 -3l-121 -142h-101zM261 -129.5q-54 -57.5 -130 -57.5q-53 0 -86 15v103q12 -5 31 -9.5t36 -4.5q64 0 91 93l-193 501h155l113 -321h6l106 321h144l-182 -483q-37 -100 -91 -157.5z" />
    <glyph glyph-name="thorn" unicode="&#xfe;" horiz-adv-x="597" 
d="M212 466q52 55 128 55q60 0 108 -29t76 -88t28 -146v-11q0 -83 -26 -141t-70.5 -87t-100.5 -29q-48 0 -84.5 20t-58.5 49v-240h-146v901h146v-254zM377 390q-27 31 -69 31t-69 -31t-27 -90v-83q0 -58 27 -89.5t69 -31.5t69 31.5t27 89.5v83q0 59 -27 90z" />
    <glyph glyph-name="ydieresis" unicode="&#xff;" horiz-adv-x="545" 
d="M235 720v-122h-121v122h121zM439 720v-122h-121v122h121zM261 -129.5q-54 -57.5 -130 -57.5q-53 0 -86 15v103q12 -5 31 -9.5t36 -4.5q64 0 91 93l-193 501h155l113 -321h6l106 321h144l-182 -483q-37 -100 -91 -157.5z" />
    <glyph glyph-name="Amacron" unicode="&#x100;" horiz-adv-x="686" 
d="M199 135l-48 -135h-149l249 686h184l249 -686h-162l-50 135h-273zM241 252h190q-38 113 -92 269h-5zM184 911h318v-74h-318v74z" />
    <glyph glyph-name="amacron" unicode="&#x101;" 
d="M357.5 400q-21.5 21 -69.5 21q-28 0 -48 -9.5t-30.5 -23.5t-10.5 -26v-8h-141q-2 12 -2 18q0 43 28.5 77t79.5 53t117 19h21q108 0 164 -42.5t56 -116.5v-236q0 -18 8.5 -27t20.5 -9q10 0 22 4t19 7v-90q-37 -21 -88 -21q-55 0 -84 22.5t-34 63.5q-70 -86 -172 -86
q-76 0 -125 31t-49 118q0 71 40.5 108.5t112.5 50.5t186 13v34q0 34 -21.5 55zM237.5 210.5q-46.5 -18.5 -46.5 -60.5q0 -33 18.5 -46.5t56.5 -13.5q26 0 52 14t43.5 40t17.5 58v27q-95 0 -141.5 -18.5zM140 736h318v-74h-318v74z" />
    <glyph glyph-name="Abreve" unicode="&#x102;" horiz-adv-x="686" 
d="M199 135l-48 -135h-149l249 686h184l249 -686h-162l-50 135h-273zM241 252h190q-38 113 -92 269h-5zM247 806.5q-44 18.5 -70.5 47.5t-26.5 58h81q5 -19 37 -34.5t74 -15.5q40 0 73.5 16t37.5 34h82q0 -29 -26.5 -58t-71 -47.5t-95.5 -18.5t-95 18.5z" />
    <glyph glyph-name="abreve" unicode="&#x103;" 
d="M357.5 400q-21.5 21 -69.5 21q-28 0 -48 -9.5t-30.5 -23.5t-10.5 -26v-8h-141q-2 12 -2 18q0 43 28.5 77t79.5 53t117 19h21q108 0 164 -42.5t56 -116.5v-236q0 -18 8.5 -27t20.5 -9q10 0 22 4t19 7v-90q-37 -21 -88 -21q-55 0 -84 22.5t-34 63.5q-70 -86 -172 -86
q-76 0 -125 31t-49 118q0 71 40.5 108.5t112.5 50.5t186 13v34q0 34 -21.5 55zM237.5 210.5q-46.5 -18.5 -46.5 -60.5q0 -33 18.5 -46.5t56.5 -13.5q26 0 52 14t43.5 40t17.5 58v27q-95 0 -141.5 -18.5zM203 631.5q-44 18.5 -70.5 47.5t-26.5 58h81q5 -19 37 -34.5t74 -15.5
q40 0 73.5 16t37.5 34h82q0 -29 -26.5 -58t-71 -47.5t-95.5 -18.5t-95 18.5z" />
    <glyph glyph-name="Aogonek" unicode="&#x104;" horiz-adv-x="686" 
d="M199 135l-48 -135h-149l249 686h184l249 -686h-162l-50 135h-273zM241 252h190q-38 113 -92 269h-5zM598 -143q-40 0 -68.5 17t-28.5 55q0 21 15 38t39 33h62q-19 -10 -33 -25t-14 -32q0 -19 13 -27.5t31 -8.5q30 0 67 14l13 -40q-43 -24 -96 -24z" />
    <glyph glyph-name="aogonek" unicode="&#x105;" 
d="M615 -119q-43 -24 -96 -24q-40 0 -68.5 17t-28.5 55q0 33 44 64q-36 7 -56 28.5t-24 54.5q-70 -86 -172 -86q-76 0 -125 31t-49 118q0 71 40.5 108.5t112.5 50.5t186 13v34q0 34 -21.5 55t-69.5 21q-28 0 -48 -9.5t-30.5 -23.5t-10.5 -26v-8h-141q-2 12 -2 18
q0 43 28.5 77t79.5 53t117 19h21q108 0 164 -42.5t56 -116.5v-236q0 -18 8.5 -27t20.5 -9q10 0 22 4t19 7v-90q-35 -17 -69 -20q-32 -24 -32 -48q0 -19 13 -27.5t31 -8.5q30 0 67 14zM379 229q-95 0 -141.5 -18.5t-46.5 -60.5q0 -33 18.5 -46.5t56.5 -13.5q26 0 52 14
t43.5 40t17.5 58v27z" />
    <glyph glyph-name="Cacute" unicode="&#x106;" horiz-adv-x="683" 
d="M251 154.5q41 -41.5 104 -41.5q71 0 105 38.5t34 118.5h141q0 -88 -35.5 -151.5t-97.5 -96t-140 -32.5h-14q-86 0 -154 35t-107 103.5t-39 165.5v98q0 94 39 163t106.5 105t150.5 36h14q80 0 142.5 -31.5t98.5 -95t36 -155.5h-147q0 78 -34.5 118.5t-99.5 40.5
q-63 0 -103.5 -41.5t-40.5 -117.5v-142q0 -76 41 -117.5zM353 895h129l1 -3l-121 -142h-101z" />
    <glyph glyph-name="cacute" unicode="&#x107;" horiz-adv-x="567" 
d="M217 123.5q26 -33.5 70 -33.5q46 0 72.5 28.5t26.5 84.5h138q0 -71 -30.5 -119t-80.5 -71t-110 -23h-16q-112 0 -178 66.5t-66 184.5v29q0 78 31.5 134.5t86.5 86.5t126 30h16q59 0 109.5 -25.5t81 -74t30.5 -114.5h-145q0 52 -23 83t-68 31t-71 -35.5t-26 -89.5v-89
q0 -50 26 -83.5zM295 720h129l1 -3l-121 -142h-101z" />
    <glyph glyph-name="Ccaron" unicode="&#x10c;" horiz-adv-x="683" 
d="M251 154.5q41 -41.5 104 -41.5q71 0 105 38.5t34 118.5h141q0 -88 -35.5 -151.5t-97.5 -96t-140 -32.5h-14q-86 0 -154 35t-107 103.5t-39 165.5v98q0 94 39 163t106.5 105t150.5 36h14q80 0 142.5 -31.5t98.5 -95t36 -155.5h-147q0 78 -34.5 118.5t-99.5 40.5
q-63 0 -103.5 -41.5t-40.5 -117.5v-142q0 -76 41 -117.5zM258 895l85 -83l84 83h104l-137 -145h-103l-138 145h105z" />
    <glyph glyph-name="ccaron" unicode="&#x10d;" horiz-adv-x="567" 
d="M217 123.5q26 -33.5 70 -33.5q46 0 72.5 28.5t26.5 84.5h138q0 -71 -30.5 -119t-80.5 -71t-110 -23h-16q-112 0 -178 66.5t-66 184.5v29q0 78 31.5 134.5t86.5 86.5t126 30h16q59 0 109.5 -25.5t81 -74t30.5 -114.5h-145q0 52 -23 83t-68 31t-71 -35.5t-26 -89.5v-89
q0 -50 26 -83.5zM200 720l85 -83l84 83h104l-137 -145h-103l-138 145h105z" />
    <glyph glyph-name="Dcaron" unicode="&#x10e;" horiz-adv-x="686" 
d="M486.5 650q69.5 -36 110.5 -105t41 -163v-78q0 -94 -41 -163t-110.5 -105t-154.5 -36h-260v686h260q85 0 154.5 -36zM227 123h105q64 0 104 41.5t40 117.5v122q0 76 -40 117.5t-104 41.5h-105v-440zM259 895l85 -83l84 83h104l-137 -145h-103l-138 145h105z" />
    <glyph glyph-name="dcaron" unicode="&#x10f;" horiz-adv-x="595" 
d="M399 64q-56 -74 -144 -74q-60 0 -108 29t-76 88t-28 146v11q0 83 26 141t70.5 87t100.5 29q48 0 84.5 -20t58.5 -49v268h146v-720h-115zM218 121.5q27 -31.5 69 -31.5t69 31.5t27 89.5v83q0 59 -27 90t-69 31t-69 -31t-27 -90v-83q0 -58 27 -89.5zM647 539h-63v147h146
v-123l-42 -168h-73q10 48 32 144z" />
    <glyph glyph-name="Dcroat" unicode="&#x110;" horiz-adv-x="686" 
d="M73 383v303h274q81 0 147.5 -37.5t105 -106.5t38.5 -160v-78q0 -91 -38.5 -160t-105 -106.5t-147.5 -37.5h-274v303h-84v80h84zM445.5 173q34.5 49 34.5 144v70q0 85 -37 130.5t-106 45.5h-110v-180h112v-80h-112v-179h110q74 0 108.5 49z" />
    <glyph glyph-name="dcroat" unicode="&#x111;" horiz-adv-x="595" 
d="M597 592h-68v-592h-115l-15 64q-56 -74 -144 -74q-60 0 -108 29t-76 88t-28 146v11q0 83 26 141t70.5 87t100.5 29q48 0 84.5 -20t58.5 -49v140h-168v74h168v54h146v-54h68v-74zM383 294q0 59 -27 90t-69 31t-69 -31t-27 -90v-83q0 -58 27 -89.5t69 -31.5t69 31.5
t27 89.5v83z" />
    <glyph glyph-name="Emacron" unicode="&#x112;" 
d="M72 686h483l-17 -123h-314v-150h293v-123h-293v-167h317l17 -123h-486v686zM140 911h318v-74h-318v74z" />
    <glyph glyph-name="emacron" unicode="&#x113;" horiz-adv-x="584" 
d="M508 78.5q-32 -45.5 -84.5 -67t-114.5 -21.5h-16q-71 0 -128 30t-89.5 86.5t-32.5 134.5v29q0 77 33 134t89.5 87t127.5 30h16q62 0 115 -25.5t85 -74t32 -114.5v-76h-350v-24q0 -50 29.5 -83.5t80.5 -33.5q46 0 72.5 25.5t26.5 75.5h140q0 -67 -32 -112.5zM222.5 390
q-27.5 -31 -31.5 -79h202q0 51 -23.5 80.5t-75.5 29.5q-44 0 -71.5 -31zM133 736h318v-74h-318v74z" />
    <glyph glyph-name="Edotaccent" unicode="&#x116;" 
d="M72 686h483l-17 -123h-314v-150h293v-123h-293v-167h317l17 -123h-486v686zM345.5 798q-19.5 -19 -47.5 -19q-26 0 -45.5 19.5t-19.5 46.5q0 28 19 47t47 19t47 -19.5t19 -46.5q0 -28 -19.5 -47z" />
    <glyph glyph-name="edotaccent" unicode="&#x117;" horiz-adv-x="584" 
d="M508 78.5q-32 -45.5 -84.5 -67t-114.5 -21.5h-16q-71 0 -128 30t-89.5 86.5t-32.5 134.5v29q0 77 33 134t89.5 87t127.5 30h16q62 0 115 -25.5t85 -74t32 -114.5v-76h-350v-24q0 -50 29.5 -83.5t80.5 -33.5q46 0 72.5 25.5t26.5 75.5h140q0 -67 -32 -112.5zM222.5 390
q-27.5 -31 -31.5 -79h202q0 51 -23.5 80.5t-75.5 29.5q-44 0 -71.5 -31zM338.5 623q-19.5 -19 -47.5 -19q-26 0 -45.5 19.5t-19.5 46.5q0 28 19 47t47 19t47 -19.5t19 -46.5q0 -28 -19.5 -47z" />
    <glyph glyph-name="Eogonek" unicode="&#x118;" 
d="M72 686h483l-17 -123h-314v-150h293v-123h-293v-167h317l17 -123h-486v686zM509 -143q-40 0 -68.5 17t-28.5 55q0 21 15 38t39 33h62q-19 -10 -33 -25t-14 -32q0 -19 13 -27.5t31 -8.5q30 0 67 14l13 -40q-43 -24 -96 -24z" />
    <glyph glyph-name="eogonek" unicode="&#x119;" horiz-adv-x="584" 
d="M191 231v-24q0 -50 29.5 -83.5t80.5 -33.5q46 0 72.5 25.5t26.5 75.5h140q0 -77 -41.5 -125t-109.5 -66h7q-19 -10 -33 -25t-14 -32q0 -19 13 -27.5t31 -8.5q30 0 67 14l13 -40q-43 -24 -96 -24q-40 0 -68.5 17t-28.5 55q0 31 40 61h-11h-16q-71 0 -128 30t-89.5 86.5
t-32.5 134.5v29q0 77 33 134t89.5 87t127.5 30h16q62 0 115 -25.5t85 -74t32 -114.5v-76h-350zM222.5 390q-27.5 -31 -31.5 -79h202q0 51 -23.5 80.5t-75.5 29.5q-44 0 -71.5 -31z" />
    <glyph glyph-name="Ecaron" unicode="&#x11a;" 
d="M72 686h483l-17 -123h-314v-150h293v-123h-293v-167h317l17 -123h-486v686zM215 895l85 -83l84 83h104l-137 -145h-103l-138 145h105z" />
    <glyph glyph-name="ecaron" unicode="&#x11b;" horiz-adv-x="584" 
d="M508 78.5q-32 -45.5 -84.5 -67t-114.5 -21.5h-16q-71 0 -128 30t-89.5 86.5t-32.5 134.5v29q0 77 33 134t89.5 87t127.5 30h16q62 0 115 -25.5t85 -74t32 -114.5v-76h-350v-24q0 -50 29.5 -83.5t80.5 -33.5q46 0 72.5 25.5t26.5 75.5h140q0 -67 -32 -112.5zM222.5 390
q-27.5 -31 -31.5 -79h202q0 51 -23.5 80.5t-75.5 29.5q-44 0 -71.5 -31zM208 720l85 -83l84 83h104l-137 -145h-103l-138 145h105z" />
    <glyph glyph-name="Gbreve" unicode="&#x11e;" horiz-adv-x="699" 
d="M251.5 154.5q41.5 -41.5 104.5 -41.5q62 0 97 37t35 111h-155v112h300v-237q0 -50 2.5 -88t3.5 -48h-85q-13 36 -24 77q-32 -41 -83.5 -64t-109.5 -23h-5q-82 0 -146.5 37t-101 106t-36.5 161v98q0 92 38 161t106.5 106t155.5 37h14q75 0 137 -31.5t98 -89t36 -133.5
h-146q0 65 -38 98t-96 33q-63 0 -103 -41.5t-40 -117.5v-142q0 -76 41.5 -117.5zM254 806.5q-44 18.5 -70.5 47.5t-26.5 58h81q5 -19 37 -34.5t74 -15.5q40 0 73.5 16t37.5 34h82q0 -29 -26.5 -58t-71 -47.5t-95.5 -18.5t-95 18.5z" />
    <glyph glyph-name="gbreve" unicode="&#x11f;" horiz-adv-x="572" 
d="M524.5 76.5q37.5 -39.5 37.5 -103.5q0 -46 -26 -83t-70.5 -57.5t-98.5 -20.5h-211q-61 0 -102.5 33.5t-41.5 92.5q0 36 21.5 65.5t54.5 44.5q-23 15 -35 37t-12 48q0 37 24 64.5t62 39.5q-34 21 -53 53.5t-19 69.5q0 71 55.5 116t162.5 45h16q47 0 84 -12q41 24 57 49
t18 45h114q0 -106 -106 -132l-1 -3q53 -45 53 -108q0 -44 -25 -80.5t-70.5 -58t-104.5 -21.5h-69q-30 0 -46.5 -13t-16.5 -29q0 -20 15.5 -31t47.5 -11h178q70 0 107.5 -39.5zM220 305.5q25 -19.5 63 -19.5q39 0 64 19.5t25 54.5t-25 54.5t-64 19.5q-38 0 -63 -19.5
t-25 -54.5t25 -54.5zM408 -82.5q19 15.5 19 36.5q0 20 -16 33.5t-42 13.5h-174q-22 0 -38 -14.5t-16 -34.5t16 -35t38 -15h168q26 0 45 15.5zM190 631.5q-44 18.5 -70.5 47.5t-26.5 58h81q5 -19 37 -34.5t74 -15.5q40 0 73.5 16t37.5 34h82q0 -29 -26.5 -58t-71 -47.5
t-95.5 -18.5t-95 18.5z" />
    <glyph glyph-name="Gcommaaccent" unicode="&#x122;" horiz-adv-x="699" 
d="M251.5 154.5q41.5 -41.5 104.5 -41.5q62 0 97 37t35 111h-155v112h300v-237q0 -50 2.5 -88t3.5 -48h-85q-13 36 -24 77q-32 -41 -83.5 -64t-109.5 -23h-5q-82 0 -146.5 37t-101 106t-36.5 161v98q0 92 38 161t106.5 106t155.5 37h14q75 0 137 -31.5t98 -89t36 -133.5
h-146q0 65 -38 98t-96 33q-63 0 -103 -41.5t-40 -117.5v-142q0 -76 41.5 -117.5zM346 -167h-63v137h146v-113l-25 -107h-74z" />
    <glyph glyph-name="gcommaaccent" unicode="&#x123;" horiz-adv-x="572" 
d="M290 708h63v-137h-146v113l25 107h74zM524.5 76.5q37.5 -39.5 37.5 -103.5q0 -46 -26 -83t-70.5 -57.5t-98.5 -20.5h-211q-61 0 -102.5 33.5t-41.5 92.5q0 36 21.5 65.5t54.5 44.5q-23 15 -35 37t-12 48q0 37 24 64.5t62 39.5q-34 21 -53 53.5t-19 69.5q0 71 55.5 116
t162.5 45h16q47 0 84 -12q41 24 57 49t18 45h114q0 -106 -106 -132l-1 -3q53 -45 53 -108q0 -44 -25 -80.5t-70.5 -58t-104.5 -21.5h-69q-30 0 -46.5 -13t-16.5 -29q0 -20 15.5 -31t47.5 -11h178q70 0 107.5 -39.5zM220 305.5q25 -19.5 63 -19.5q39 0 64 19.5t25 54.5
t-25 54.5t-64 19.5q-38 0 -63 -19.5t-25 -54.5t25 -54.5zM408 -82.5q19 15.5 19 36.5q0 20 -16 33.5t-42 13.5h-174q-22 0 -38 -14.5t-16 -34.5t16 -35t38 -15h168q26 0 45 15.5z" />
    <glyph glyph-name="Imacron" unicode="&#x12a;" horiz-adv-x="461" 
d="M388 686v-123h-80v-440h80v-123h-316v123h81v440h-81v123h316zM72 911h318v-74h-318v74z" />
    <glyph glyph-name="imacron" unicode="&#x12b;" horiz-adv-x="278" 
d="M66 511h146v-511h-146v511zM-20 736h318v-74h-318v74z" />
    <glyph glyph-name="Iogonek" unicode="&#x12e;" horiz-adv-x="461" 
d="M388 686v-123h-80v-440h80v-123h-316v123h81v440h-81v123h316zM346 -143q-40 0 -68.5 17t-28.5 55q0 21 15 38t39 33h62q-19 -10 -33 -25t-14 -32q0 -19 13 -27.5t31 -8.5q30 0 67 14l13 -40q-43 -24 -96 -24z" />
    <glyph glyph-name="iogonek" unicode="&#x12f;" horiz-adv-x="278" 
d="M213 605h-148v115h148v-115zM277 -119q-44 -24 -96 -24q-40 0 -68.5 17t-28.5 55q0 21 15 38t39 33h-72v511h146v-511h-12q-19 -10 -33 -25t-14 -32q0 -19 13 -27.5t31 -8.5q30 0 67 14z" />
    <glyph glyph-name="Idotaccent" unicode="&#x130;" horiz-adv-x="461" 
d="M388 686v-123h-80v-440h80v-123h-316v123h81v440h-81v123h316zM277.5 798q-19.5 -19 -47.5 -19q-26 0 -45.5 19.5t-19.5 46.5q0 28 19 47t47 19t47 -19.5t19 -46.5q0 -28 -19.5 -47z" />
    <glyph glyph-name="dotlessi" unicode="&#x131;" horiz-adv-x="278" 
d="M66 511h146v-511h-146v511z" />
    <glyph glyph-name="Kcommaaccent" unicode="&#x136;" horiz-adv-x="660" 
d="M223 686v-314l247 314h173l-231 -289q85 -142 98 -164l140 -233h-175l-163 278l-89 -99v-179h-151v686h151zM326 -167h-63v137h146v-113l-25 -107h-74z" />
    <glyph glyph-name="kcommaaccent" unicode="&#x137;" horiz-adv-x="562" 
d="M269 167l-57 -55v-112h-146v720h146v-447l179 238h165l-188 -240l196 -271h-174zM277 -167h-63v137h146v-113l-25 -107h-74z" />
    <glyph glyph-name="Lacute" unicode="&#x139;" horiz-adv-x="533" 
d="M72 686h155v-558h282l17 -128h-454v686zM188 895h129l1 -3l-121 -142h-101z" />
    <glyph glyph-name="lacute" unicode="&#x13a;" horiz-adv-x="279" 
d="M66 720h146v-720h-146v720zM151 895h129l1 -3l-121 -142h-101z" />
    <glyph glyph-name="Lcommaaccent" unicode="&#x13b;" horiz-adv-x="533" 
d="M72 686h155v-558h282l17 -128h-454v686zM263 -167h-63v137h146v-113l-25 -107h-74z" />
    <glyph glyph-name="lcommaaccent" unicode="&#x13c;" horiz-adv-x="279" 
d="M66 720h146v-720h-146v720zM136 -167h-63v137h146v-113l-25 -107h-74z" />
    <glyph glyph-name="Lcaron" unicode="&#x13d;" horiz-adv-x="533" 
d="M72 686h155v-558h282l17 -128h-454v686zM415 539h-63v147h146v-123l-42 -168h-73q10 48 32 144z" />
    <glyph glyph-name="lcaron" unicode="&#x13e;" horiz-adv-x="279" 
d="M66 720h146v-720h-146v720zM321 539h-63v147h146v-123l-42 -168h-73q10 48 32 144z" />
    <glyph glyph-name="Lslash" unicode="&#x141;" horiz-adv-x="546" 
d="M72 394v292h155v-214l115 58v-88l-115 -58v-256h277q9 -50 22 -128h-454v306q-42 -22 -64 -32v88q22 10 64 32z" />
    <glyph glyph-name="lslash" unicode="&#x142;" horiz-adv-x="279" 
d="M66 390v330h146v-256l71 36v-88l-71 -35v-377h-146v303l-70 -35v87z" />
    <glyph glyph-name="Nacute" unicode="&#x143;" horiz-adv-x="691" 
d="M272 316q-11 16 -30 47.5t-25 41.5l-4 -3v-402h-141v686h131l216 -318l30 -47q16 -28 25 -41l3 3v403h141v-686h-131zM357 895h129l1 -3l-121 -142h-101z" />
    <glyph glyph-name="nacute" unicode="&#x144;" horiz-adv-x="597" 
d="M191 436q63 85 163 85q78 0 128.5 -42t50.5 -122v-357h-146v325q0 39 -22.5 64.5t-57.5 25.5q-39 0 -67 -29.5t-28 -71.5v-314h-146v511h109zM310 720h129l1 -3l-121 -142h-101z" />
    <glyph glyph-name="Ncommaaccent" unicode="&#x145;" horiz-adv-x="691" 
d="M272 316q-11 16 -30 47.5t-25 41.5l-4 -3v-402h-141v686h131l216 -318l30 -47q16 -28 25 -41l3 3v403h141v-686h-131zM342 -167h-63v137h146v-113l-25 -107h-74z" />
    <glyph glyph-name="ncommaaccent" unicode="&#x146;" horiz-adv-x="597" 
d="M191 436q63 85 163 85q78 0 128.5 -42t50.5 -122v-357h-146v325q0 39 -22.5 64.5t-57.5 25.5q-39 0 -67 -29.5t-28 -71.5v-314h-146v511h109zM295 -167h-63v137h146v-113l-25 -107h-74z" />
    <glyph glyph-name="Ncaron" unicode="&#x147;" horiz-adv-x="691" 
d="M272 316q-11 16 -30 47.5t-25 41.5l-4 -3v-402h-141v686h131l216 -318l30 -47q16 -28 25 -41l3 3v403h141v-686h-131zM262 895l85 -83l84 83h104l-137 -145h-103l-138 145h105z" />
    <glyph glyph-name="ncaron" unicode="&#x148;" horiz-adv-x="597" 
d="M191 436q63 85 163 85q78 0 128.5 -42t50.5 -122v-357h-146v325q0 39 -22.5 64.5t-57.5 25.5q-39 0 -67 -29.5t-28 -71.5v-314h-146v511h109zM215 720l85 -83l84 83h104l-137 -145h-103l-138 145h105z" />
    <glyph glyph-name="Omacron" unicode="&#x14c;" horiz-adv-x="708" 
d="M619 131q-41 -69 -110.5 -105t-154.5 -36t-154.5 36t-110.5 105t-41 163v98q0 94 41 163t110.5 105t154.5 36t154.5 -36t110.5 -105t41 -163v-98q0 -94 -41 -163zM458 531.5q-40 41.5 -104 41.5t-104 -41.5t-40 -117.5v-142q0 -76 40 -117.5t104 -41.5t104 41.5t40 117.5
v142q0 76 -40 117.5zM195 911h318v-74h-318v74z" />
    <glyph glyph-name="omacron" unicode="&#x14d;" horiz-adv-x="602" 
d="M526.5 107q-32.5 -57 -89.5 -87t-128 -30h-16q-71 0 -128 30t-89.5 87t-32.5 134v29q0 77 32.5 134t89.5 87t128 30h16q71 0 128 -30t89.5 -87t32.5 -134v-29q0 -77 -32.5 -134zM380.5 389q-30.5 32 -79.5 32t-79.5 -32t-30.5 -93v-81q0 -61 30.5 -93t79.5 -32t79.5 32
t30.5 93v81q0 61 -30.5 93zM142 736h318v-74h-318v74z" />
    <glyph glyph-name="Ohungarumlaut" unicode="&#x150;" horiz-adv-x="708" 
d="M619 131q-41 -69 -110.5 -105t-154.5 -36t-154.5 36t-110.5 105t-41 163v98q0 94 41 163t110.5 105t154.5 36t154.5 -36t110.5 -105t41 -163v-98q0 -94 -41 -163zM458 531.5q-40 41.5 -104 41.5t-104 -41.5t-40 -117.5v-142q0 -76 40 -117.5t104 -41.5t104 41.5t40 117.5
v142q0 76 -40 117.5zM270 895h128l2 -3l-121 -142h-102zM461 895h128l2 -3l-121 -142h-102z" />
    <glyph glyph-name="ohungarumlaut" unicode="&#x151;" horiz-adv-x="602" 
d="M526.5 107q-32.5 -57 -89.5 -87t-128 -30h-16q-71 0 -128 30t-89.5 87t-32.5 134v29q0 77 32.5 134t89.5 87t128 30h16q71 0 128 -30t89.5 -87t32.5 -134v-29q0 -77 -32.5 -134zM380.5 389q-30.5 32 -79.5 32t-79.5 -32t-30.5 -93v-81q0 -61 30.5 -93t79.5 -32t79.5 32
t30.5 93v81q0 61 -30.5 93zM217 720h128l2 -3l-121 -142h-102zM408 720h128l2 -3l-121 -142h-102z" />
    <glyph glyph-name="OE" unicode="&#x152;" horiz-adv-x="1024" 
d="M498 29q-58 -39 -158 -39q-81 0 -148 37.5t-105.5 106.5t-38.5 160v97q0 91 38.5 160t105.5 106.5t148 37.5q94 0 159 -38v29h477l-27 -124h-297v-155h276v-121h-276v-163h310q8 -41 22 -123h-486v29zM458 531.5q-40 41.5 -104 41.5t-104 -41.5t-40 -117.5v-142
q0 -76 40 -117.5t104 -41.5t104 41.5t40 117.5v142q0 76 -40 117.5z" />
    <glyph glyph-name="oe" unicode="&#x153;" horiz-adv-x="946" 
d="M404 505q44 -16 78 -46q33 30 77.5 46t95.5 16h16q62 0 115 -25.5t85 -74t32 -114.5v-76h-350v-24q0 -50 29.5 -83.5t80.5 -33.5q46 0 72.5 25.5t26.5 75.5h140q0 -67 -32 -112.5t-84.5 -67t-114.5 -21.5h-16q-106 0 -173 61q-69 -61 -173 -61h-16q-71 0 -128 30
t-89.5 87t-32.5 134v29q0 77 32.5 134t89.5 87t128 30h16q51 0 95 -16zM380.5 389q-30.5 32 -79.5 32t-79.5 -32t-30.5 -93v-81q0 -61 30.5 -93t79.5 -32t79.5 32t30.5 93v81q0 61 -30.5 93zM584.5 390q-27.5 -31 -31.5 -79h202q0 51 -23.5 80.5t-75.5 29.5q-44 0 -71.5 -31
z" />
    <glyph glyph-name="Racute" unicode="&#x154;" horiz-adv-x="665" 
d="M562 -7q-51 0 -83 25t-32 84q0 86 -22.5 134t-84.5 48h-116v-284h-152v686h307q98 0 164.5 -40t66.5 -130q0 -36 -16 -71t-44.5 -60t-62.5 -31v-5q44 -14 77 -60t33 -123q0 -110 51 -126v-34q-33 -13 -86 -13zM430.5 427q23.5 22 23.5 53v7q0 33 -22.5 54.5t-57.5 21.5
h-150v-158h150q33 0 56.5 22zM344 895h129l1 -3l-121 -142h-101z" />
    <glyph glyph-name="racute" unicode="&#x155;" horiz-adv-x="489" 
d="M353 336q0 31 -17 53.5t-54 22.5q-35 0 -53.5 -27.5t-18.5 -68.5v-316h-144v511h108l18 -75q4 11 20.5 31t48 37t74.5 17q69 0 106.5 -43t37.5 -114q0 -15 -1.5 -30t-2.5 -21h-122v23zM176 720h129l1 -3l-121 -142h-101z" />
    <glyph glyph-name="Rcommaaccent" unicode="&#x156;" horiz-adv-x="665" 
d="M562 -7q-51 0 -83 25t-32 84q0 86 -22.5 134t-84.5 48h-116v-284h-152v686h307q98 0 164.5 -40t66.5 -130q0 -36 -16 -71t-44.5 -60t-62.5 -31v-5q44 -14 77 -60t33 -123q0 -110 51 -126v-34q-33 -13 -86 -13zM430.5 427q23.5 22 23.5 53v7q0 33 -22.5 54.5t-57.5 21.5
h-150v-158h150q33 0 56.5 22zM329 -167h-63v137h146v-113l-25 -107h-74z" />
    <glyph glyph-name="rcommaaccent" unicode="&#x157;" horiz-adv-x="489" 
d="M353 336q0 31 -17 53.5t-54 22.5q-35 0 -53.5 -27.5t-18.5 -68.5v-316h-144v511h108l18 -75q4 11 20.5 31t48 37t74.5 17q69 0 106.5 -43t37.5 -114q0 -15 -1.5 -30t-2.5 -21h-122v23zM134 -167h-63v137h146v-113l-25 -107h-74z" />
    <glyph glyph-name="Rcaron" unicode="&#x158;" horiz-adv-x="665" 
d="M562 -7q-51 0 -83 25t-32 84q0 86 -22.5 134t-84.5 48h-116v-284h-152v686h307q98 0 164.5 -40t66.5 -130q0 -36 -16 -71t-44.5 -60t-62.5 -31v-5q44 -14 77 -60t33 -123q0 -110 51 -126v-34q-33 -13 -86 -13zM430.5 427q23.5 22 23.5 53v7q0 33 -22.5 54.5t-57.5 21.5
h-150v-158h150q33 0 56.5 22zM249 895l85 -83l84 83h104l-137 -145h-103l-138 145h105z" />
    <glyph glyph-name="rcaron" unicode="&#x159;" horiz-adv-x="489" 
d="M353 336q0 31 -17 53.5t-54 22.5q-35 0 -53.5 -27.5t-18.5 -68.5v-316h-144v511h108l18 -75q4 11 20.5 31t48 37t74.5 17q69 0 106.5 -43t37.5 -114q0 -15 -1.5 -30t-2.5 -21h-122v23zM81 720l85 -83l84 83h104l-137 -145h-103l-138 145h105z" />
    <glyph glyph-name="Sacute" unicode="&#x15a;" horiz-adv-x="635" 
d="M435 492q0 38 -30 59.5t-83 21.5q-55 0 -85.5 -17.5t-30.5 -46.5q0 -25 19 -41.5t48.5 -26.5t80.5 -22q75 -18 123.5 -37t83 -59t34.5 -107q0 -117 -75.5 -171.5t-207.5 -54.5q-120 0 -198.5 52.5t-78.5 159.5l1 22h146l-1 -16q0 -44 33 -69.5t93 -25.5q70 0 100.5 22
t30.5 56q0 26 -18.5 42.5t-47 26t-79.5 21.5q-76 19 -124 38t-83 61t-35 113q0 66 36 112t96.5 68.5t135.5 22.5q115 0 188 -50.5t73 -150.5v-12h-145v9zM329 895h129l1 -3l-121 -142h-101z" />
    <glyph glyph-name="sacute" unicode="&#x15b;" horiz-adv-x="539" 
d="M158 156q0 -35 31 -50.5t77 -15.5q40 0 71.5 12t31.5 38q0 28 -29 40t-90 21q-64 11 -105 24t-70.5 45t-29.5 89q0 52 30.5 88.5t81 55t110.5 18.5h20q53 0 100.5 -17.5t76.5 -49t29 -71.5q0 -8 -1 -14.5t-1 -7.5h-128q0 60 -92 60q-42 0 -67.5 -12t-25.5 -33
q0 -25 27.5 -35t86.5 -19q67 -11 108.5 -23.5t72.5 -45t31 -91.5q0 -91 -64 -131.5t-163 -40.5h-33q-62 0 -111 19t-76.5 54t-27.5 80l1 20h128v-7zM281 720h129l1 -3l-121 -142h-101z" />
    <glyph glyph-name="Scedilla" unicode="&#x15e;" horiz-adv-x="635" 
d="M435 492q0 38 -30 59.5t-83 21.5q-55 0 -85.5 -17.5t-30.5 -46.5q0 -25 19 -41.5t48.5 -26.5t80.5 -22q75 -18 123.5 -37t83 -59t34.5 -107q0 -117 -75.5 -171.5t-207.5 -54.5q-120 0 -198.5 52.5t-78.5 159.5l1 22h146l-1 -16q0 -44 33 -69.5t93 -25.5q70 0 100.5 22
t30.5 56q0 26 -18.5 42.5t-47 26t-79.5 21.5q-76 19 -124 38t-83 61t-35 113q0 66 36 112t96.5 68.5t135.5 22.5q115 0 188 -50.5t73 -150.5v-12h-145v9zM247 -129.5q20 -12.5 61 -12.5q22 0 35.5 9.5t13.5 28.5q0 17 -12 26.5t-33 9.5h-20v51h23q116 0 116 -90
q0 -50 -37 -70t-82 -20q-29 0 -58.5 7.5t-49.5 21.5l21 52q2 -1 22 -13.5z" />
    <glyph glyph-name="scedilla" unicode="&#x15f;" horiz-adv-x="539" 
d="M158 156q0 -35 31 -50.5t77 -15.5q40 0 71.5 12t31.5 38q0 28 -29 40t-90 21q-64 11 -105 24t-70.5 45t-29.5 89q0 52 30.5 88.5t81 55t110.5 18.5h20q53 0 100.5 -17.5t76.5 -49t29 -71.5q0 -8 -1 -14.5t-1 -7.5h-128q0 60 -92 60q-42 0 -67.5 -12t-25.5 -33
q0 -25 27.5 -35t86.5 -19q67 -11 108.5 -23.5t72.5 -45t31 -91.5q0 -91 -64 -131.5t-163 -40.5h-33q-62 0 -111 19t-76.5 54t-27.5 80l1 20h128v-7zM199 -129.5q20 -12.5 61 -12.5q22 0 35.5 9.5t13.5 28.5q0 17 -12 26.5t-33 9.5h-20v51h23q116 0 116 -90q0 -50 -37 -70
t-82 -20q-29 0 -58.5 7.5t-49.5 21.5l21 52q2 -1 22 -13.5z" />
    <glyph glyph-name="Scaron" unicode="&#x160;" horiz-adv-x="635" 
d="M234 895l85 -83l84 83h104l-137 -145h-103l-138 145h105zM435 492q0 38 -30 59.5t-83 21.5q-55 0 -85.5 -17.5t-30.5 -46.5q0 -25 19 -41.5t48.5 -26.5t80.5 -22q75 -18 123.5 -37t83 -59t34.5 -107q0 -117 -75.5 -171.5t-207.5 -54.5q-120 0 -198.5 52.5t-78.5 159.5
l1 22h146l-1 -16q0 -44 33 -69.5t93 -25.5q70 0 100.5 22t30.5 56q0 26 -18.5 42.5t-47 26t-79.5 21.5q-76 19 -124 38t-83 61t-35 113q0 66 36 112t96.5 68.5t135.5 22.5q115 0 188 -50.5t73 -150.5v-12h-145v9z" />
    <glyph glyph-name="scaron" unicode="&#x161;" horiz-adv-x="541" 
d="M185 720l85 -83l84 83h104l-137 -145h-103l-138 145h105zM158 156q0 -35 31 -50.5t77 -15.5q40 0 71.5 12t31.5 38q0 28 -29 40t-90 21q-64 11 -105 24t-70.5 45t-29.5 89q0 52 30.5 88.5t81 55t110.5 18.5h20q53 0 100.5 -17.5t76.5 -49t29 -71.5q0 -8 -1 -14.5t-1 -7.5
h-128q0 60 -92 60q-42 0 -67.5 -12t-25.5 -33q0 -25 27.5 -35t86.5 -19q67 -11 108.5 -23.5t72.5 -45t31 -91.5q0 -91 -64 -131.5t-163 -40.5h-33q-62 0 -111 19t-76.5 54t-27.5 80l1 20h128v-7z" />
    <glyph glyph-name="uni0162" unicode="&#x162;" horiz-adv-x="557" 
d="M355 0h-153v562h-195v124h542v-124h-194v-562zM208 -129.5q20 -12.5 61 -12.5q22 0 35.5 9.5t13.5 28.5q0 17 -12 26.5t-33 9.5h-20v51h23q116 0 116 -90q0 -50 -37 -70t-82 -20q-29 0 -58.5 7.5t-49.5 21.5l21 52q2 -1 22 -13.5z" />
    <glyph glyph-name="uni0163" unicode="&#x163;" horiz-adv-x="371" 
d="M290.5 -4.5q-32.5 -5.5 -57.5 -5.5q-77 0 -116 33t-39 110v278h-56v100h61l51 163h90v-163h119v-100h-119v-253q0 -40 15.5 -54t41.5 -14q12 0 31 4t31 9v-94q-20 -8 -52.5 -13.5zM115 -129.5q20 -12.5 61 -12.5q22 0 35.5 9.5t13.5 28.5q0 17 -12 26.5t-33 9.5h-20v51
h23q116 0 116 -90q0 -50 -37 -70t-82 -20q-29 0 -58.5 7.5t-49.5 21.5l21 52q2 -1 22 -13.5z" />
    <glyph glyph-name="Tcaron" unicode="&#x164;" horiz-adv-x="557" 
d="M355 0h-153v562h-195v124h542v-124h-194v-562zM195 895l85 -83l84 83h104l-137 -145h-103l-138 145h105z" />
    <glyph glyph-name="tcaron" unicode="&#x165;" horiz-adv-x="371" 
d="M290.5 -4.5q-32.5 -5.5 -57.5 -5.5q-77 0 -116 33t-39 110v278h-56v100h61l51 163h90v-163h119v-100h-119v-253q0 -40 15.5 -54t41.5 -14q12 0 31 4t31 9v-94q-20 -8 -52.5 -13.5zM413 539h-63v147h146v-123l-42 -168h-73q10 48 32 144z" />
    <glyph glyph-name="Umacron" unicode="&#x16a;" horiz-adv-x="673" 
d="M577 98q-32 -52 -91 -80t-136 -28h-28q-77 0 -135.5 28t-90.5 80t-32 120v468h154v-465q0 -47 33.5 -78t85.5 -31q53 0 85.5 30.5t32.5 78.5v465h154v-468q0 -68 -32 -120zM178 911h318v-74h-318v74z" />
    <glyph glyph-name="umacron" unicode="&#x16b;" horiz-adv-x="612" 
d="M540 97.5q9 -7.5 20 -7.5q10 0 22 4t19 7v-90q-37 -21 -88 -21q-100 0 -116 73q-63 -73 -154 -73q-78 0 -128.5 42t-50.5 122v357h146v-325q0 -39 22.5 -64.5t57.5 -25.5q39 0 67 29.5t28 71.5v314h146v-391q0 -15 9 -22.5zM147 736h318v-74h-318v74z" />
    <glyph glyph-name="Uring" unicode="&#x16e;" horiz-adv-x="673" 
d="M577 98q-32 -52 -91 -80t-136 -28h-28q-77 0 -135.5 28t-90.5 80t-32 120v468h154v-465q0 -47 33.5 -78t85.5 -31q53 0 85.5 30.5t32.5 78.5v465h154v-468q0 -68 -32 -120zM265.5 891.5q29.5 29.5 71.5 29.5t71.5 -29.5t29.5 -71.5t-29.5 -71.5t-71.5 -29.5t-71.5 29.5
t-29.5 71.5t29.5 71.5zM306 789q13 -13 31 -13t31 13t13 31t-13 31t-31 13t-31 -13t-13 -31t13 -31z" />
    <glyph glyph-name="uring" unicode="&#x16f;" horiz-adv-x="612" 
d="M540 97.5q9 -7.5 20 -7.5q10 0 22 4t19 7v-90q-37 -21 -88 -21q-100 0 -116 73q-63 -73 -154 -73q-78 0 -128.5 42t-50.5 122v357h146v-325q0 -39 22.5 -64.5t57.5 -25.5q39 0 67 29.5t28 71.5v314h146v-391q0 -15 9 -22.5zM234.5 716.5q29.5 29.5 71.5 29.5t71.5 -29.5
t29.5 -71.5t-29.5 -71.5t-71.5 -29.5t-71.5 29.5t-29.5 71.5t29.5 71.5zM275 614q13 -13 31 -13t31 13t13 31t-13 31t-31 13t-31 -13t-13 -31t13 -31z" />
    <glyph glyph-name="Uhungarumlaut" unicode="&#x170;" horiz-adv-x="673" 
d="M577 98q-32 -52 -91 -80t-136 -28h-28q-77 0 -135.5 28t-90.5 80t-32 120v468h154v-465q0 -47 33.5 -78t85.5 -31q53 0 85.5 30.5t32.5 78.5v465h154v-468q0 -68 -32 -120zM253 895h128l2 -3l-121 -142h-102zM444 895h128l2 -3l-121 -142h-102z" />
    <glyph glyph-name="uhungarumlaut" unicode="&#x171;" horiz-adv-x="612" 
d="M540 97.5q9 -7.5 20 -7.5q10 0 22 4t19 7v-90q-37 -21 -88 -21q-100 0 -116 73q-63 -73 -154 -73q-78 0 -128.5 42t-50.5 122v357h146v-325q0 -39 22.5 -64.5t57.5 -25.5q39 0 67 29.5t28 71.5v314h146v-391q0 -15 9 -22.5zM222 720h128l2 -3l-121 -142h-102zM413 720
h128l2 -3l-121 -142h-102z" />
    <glyph glyph-name="Uogonek" unicode="&#x172;" horiz-adv-x="673" 
d="M609 686v-468q0 -83 -46.5 -140.5t-127.5 -77.5h11q-19 -10 -33 -25t-14 -32q0 -19 13 -27.5t31 -8.5q30 0 67 14l13 -40q-43 -24 -96 -24q-40 0 -68.5 17t-28.5 55q0 30 40 62q-6 -1 -20 -1h-28q-77 0 -135.5 28t-90.5 80t-32 120v468h154v-465q0 -47 33.5 -78t85.5 -31
q53 0 85.5 30.5t32.5 78.5v465h154z" />
    <glyph glyph-name="uogonek" unicode="&#x173;" horiz-adv-x="612" 
d="M628 -119q-43 -24 -96 -24q-40 0 -68.5 17t-28.5 55q0 31 43 64q-68 12 -81 70q-63 -73 -154 -73q-78 0 -128.5 42t-50.5 122v357h146v-325q0 -39 22.5 -64.5t57.5 -25.5q39 0 67 29.5t28 71.5v314h146v-391q0 -15 9 -22.5t20 -7.5q10 0 22 4t19 7v-90q-14 -7 -27.5 -12
t-36.5 -8q-33 -21 -33 -48q0 -19 13 -27.5t31 -8.5q30 0 67 14z" />
    <glyph glyph-name="Ydieresis" unicode="&#x178;" horiz-adv-x="637" 
d="M289 871v-122h-121v122h121zM493 871v-122h-121v122h121zM396 0h-154v263l-235 423h174l143 -272h5l143 272h158l-234 -423v-263z" />
    <glyph glyph-name="Zacute" unicode="&#x179;" horiz-adv-x="631" 
d="M42 49l316 514h-292v123h515v-50l-315 -513h323v-123h-547v49zM327 895h129l1 -3l-121 -142h-101z" />
    <glyph glyph-name="zacute" unicode="&#x17a;" horiz-adv-x="486" 
d="M36 50l218 361h-205v100h398v-49l-219 -362h227v-100h-419v50zM254 720h129l1 -3l-121 -142h-101z" />
    <glyph glyph-name="Zdotaccent" unicode="&#x17b;" horiz-adv-x="631" 
d="M42 49l316 514h-292v123h515v-50l-315 -513h323v-123h-547v49zM362.5 798q-19.5 -19 -47.5 -19q-26 0 -45.5 19.5t-19.5 46.5q0 28 19 47t47 19t47 -19.5t19 -46.5q0 -28 -19.5 -47z" />
    <glyph glyph-name="zdotaccent" unicode="&#x17c;" horiz-adv-x="486" 
d="M36 50l218 361h-205v100h398v-49l-219 -362h227v-100h-419v50zM289.5 623q-19.5 -19 -47.5 -19q-26 0 -45.5 19.5t-19.5 46.5q0 28 19 47t47 19t47 -19.5t19 -46.5q0 -28 -19.5 -47z" />
    <glyph glyph-name="Zcaron" unicode="&#x17d;" horiz-adv-x="631" 
d="M238 895l85 -83l84 83h104l-137 -145h-103l-138 145h105zM42 49l316 514h-292v123h515v-50l-315 -513h323v-123h-547v49z" />
    <glyph glyph-name="zcaron" unicode="&#x17e;" horiz-adv-x="486" 
d="M163 720l85 -83l84 83h104l-137 -145h-103l-138 145h105zM36 50l218 361h-205v100h398v-49l-219 -362h227v-100h-419v50z" />
    <glyph glyph-name="florin" unicode="&#x192;" horiz-adv-x="381" 
d="M383 626q-19 4 -30 4q-26 0 -43.5 -11.5t-22.5 -49.5l-8 -58h120l-15 -109h-120l-64 -448q-10 -71 -55.5 -104.5t-117.5 -33.5q-26 0 -58 5.5t-50 14.5l12 90q11 -4 30.5 -8t30.5 -4q26 0 43 11.5t22 49.5l62 427h-62l15 109h61l11 78q10 71 56 105t118 34q25 0 57 -6
t50 -15l-12 -89q-11 4 -30 8z" />
    <glyph glyph-name="Scommaaccent" unicode="&#x218;" horiz-adv-x="635" 
d="M435 492q0 38 -30 59.5t-83 21.5q-55 0 -85.5 -17.5t-30.5 -46.5q0 -25 19 -41.5t48.5 -26.5t80.5 -22q75 -18 123.5 -37t83 -59t34.5 -107q0 -117 -75.5 -171.5t-207.5 -54.5q-120 0 -198.5 52.5t-78.5 159.5l1 22h146l-1 -16q0 -44 33 -69.5t93 -25.5q70 0 100.5 22
t30.5 56q0 26 -18.5 42.5t-47 26t-79.5 21.5q-76 19 -124 38t-83 61t-35 113q0 66 36 112t96.5 68.5t135.5 22.5q115 0 188 -50.5t73 -150.5v-12h-145v9zM314 -167h-63v137h146v-113l-25 -107h-74z" />
    <glyph glyph-name="scommaaccent" unicode="&#x219;" horiz-adv-x="539" 
d="M158 156q0 -35 31 -50.5t77 -15.5q40 0 71.5 12t31.5 38q0 28 -29 40t-90 21q-64 11 -105 24t-70.5 45t-29.5 89q0 52 30.5 88.5t81 55t110.5 18.5h20q53 0 100.5 -17.5t76.5 -49t29 -71.5q0 -8 -1 -14.5t-1 -7.5h-128q0 60 -92 60q-42 0 -67.5 -12t-25.5 -33
q0 -25 27.5 -35t86.5 -19q67 -11 108.5 -23.5t72.5 -45t31 -91.5q0 -91 -64 -131.5t-163 -40.5h-33q-62 0 -111 19t-76.5 54t-27.5 80l1 20h128v-7zM266 -167h-63v137h146v-113l-25 -107h-74z" />
    <glyph glyph-name="uni021A" unicode="&#x21a;" horiz-adv-x="557" 
d="M355 0h-153v562h-195v124h542v-124h-194v-562zM275 -167h-63v137h146v-113l-25 -107h-74z" />
    <glyph glyph-name="uni021B" unicode="&#x21b;" horiz-adv-x="371" 
d="M290.5 -4.5q-32.5 -5.5 -57.5 -5.5q-77 0 -116 33t-39 110v278h-56v100h61l51 163h90v-163h119v-100h-119v-253q0 -40 15.5 -54t41.5 -14q12 0 31 4t31 9v-94q-20 -8 -52.5 -13.5zM182 -167h-63v137h146v-113l-25 -107h-74z" />
    <glyph glyph-name="circumflex" unicode="&#x2c6;" horiz-adv-x="538" 
d="M319 720l137 -145h-105l-84 83l-85 -83h-104l138 145h103z" />
    <glyph glyph-name="caron" unicode="&#x2c7;" horiz-adv-x="538" 
d="M183 720l85 -83l84 83h104l-137 -145h-103l-138 145h105z" />
    <glyph glyph-name="uni02C9" unicode="&#x2c9;" horiz-adv-x="460" 
d="M71 736h318v-74h-318v74z" />
    <glyph glyph-name="breve" unicode="&#x2d8;" horiz-adv-x="520" 
d="M165 631.5q-44 18.5 -70.5 47.5t-26.5 58h81q5 -19 37 -34.5t74 -15.5q40 0 73.5 16t37.5 34h82q0 -29 -26.5 -58t-71 -47.5t-95.5 -18.5t-95 18.5z" />
    <glyph glyph-name="dotaccent" unicode="&#x2d9;" horiz-adv-x="280" 
d="M186.5 623q-19.5 -19 -47.5 -19q-26 0 -45.5 19.5t-19.5 46.5q0 28 19 47t47 19t47 -19.5t19 -46.5q0 -28 -19.5 -47z" />
    <glyph glyph-name="ring" unicode="&#x2da;" horiz-adv-x="340" 
d="M98.5 716.5q29.5 29.5 71.5 29.5t71.5 -29.5t29.5 -71.5t-29.5 -71.5t-71.5 -29.5t-71.5 29.5t-29.5 71.5t29.5 71.5zM139 614q13 -13 31 -13t31 13t13 31t-13 31t-31 13t-31 -13t-13 -31t13 -31z" />
    <glyph glyph-name="ogonek" unicode="&#x2db;" horiz-adv-x="340" 
d="M166 -143q-40 0 -68.5 17t-28.5 55q0 21 15 38t39 33h62q-19 -10 -33 -25t-14 -32q0 -19 13 -27.5t31 -8.5q30 0 67 14l13 -40q-43 -24 -96 -24z" />
    <glyph glyph-name="tilde" unicode="&#x2dc;" horiz-adv-x="348" 
d="M382.5 658.5q-15.5 -28.5 -44.5 -46.5t-66 -18q-22 0 -43.5 5t-49.5 15q-26 9 -43 13t-35 4q-41 0 -52 -37h-66q0 30 16 59t45 47t66 18q22 0 43 -5t49 -15q29 -10 45 -14t33 -4q20 0 34 10t19 28h65q0 -31 -15.5 -59.5z" />
    <glyph glyph-name="hungarumlaut" unicode="&#x2dd;" horiz-adv-x="498" 
d="M135 720h128l2 -3l-121 -142h-102zM326 720h128l2 -3l-121 -142h-102z" />
    <glyph glyph-name="uni0326" unicode="&#x326;" horiz-adv-x="0" 
d="M-149 -167h-63v137h146v-113l-25 -107h-74z" />
    <glyph glyph-name="uni0394" unicode="&#x394;" horiz-adv-x="700" 
d="M289 686h121l229 -607v-79h-578v79zM523 92l-173 469l-173 -469h346z" />
    <glyph glyph-name="uni03A9" unicode="&#x3a9;" horiz-adv-x="724" 
d="M566 111l31 5q44 6 67 10h23v-126h-284v67q60 17 80.5 69t20.5 153v92q0 97 -35 145t-107 48q-76 0 -108.5 -48t-32.5 -145v-92q0 -100 20 -152.5t80 -69.5v-67h-285v126h23l21 -3l78 -12q-102 91 -102 236v35q0 97 38 167.5t103.5 107.5t146.5 37h36q81 0 146.5 -37
t103.5 -107.5t38 -167.5v-39q0 -140 -102 -232z" />
    <glyph glyph-name="uni03BC" unicode="&#x3bc;" horiz-adv-x="610" 
d="M540 97.5q9 -7.5 20 -7.5q10 0 22 4t19 7v-90q-37 -21 -88 -21q-100 0 -116 73q-63 -73 -154 -73q-24 0 -42 7q9 -29 9 -54v-104h-146v672h146v-325q0 -39 22.5 -64.5t57.5 -25.5q39 0 67 29.5t28 71.5v314h146v-391q0 -15 9 -22.5z" />
    <glyph glyph-name="pi" unicode="&#x3c0;" horiz-adv-x="679" 
d="M566 158q0 -104 14 -158h-138q-18 26 -18 148v263h-136q-4 -99 -24.5 -226t-45.5 -185h-139q27 76 47 199.5t22 211.5q-80 0 -116 -11l-15 78q42 33 186 33h457l-12 -100h-82v-253z" />
    <glyph glyph-name="endash" unicode="&#x2013;" horiz-adv-x="500" 
d="M0 336h500v-127h-500v127z" />
    <glyph glyph-name="emdash" unicode="&#x2014;" horiz-adv-x="911" 
d="M0 335h910v-126h-910v126z" />
    <glyph glyph-name="quoteleft" unicode="&#x2018;" horiz-adv-x="277" 
d="M148 542h63v-147h-146v123l42 168h73q-10 -48 -32 -144z" />
    <glyph glyph-name="quoteright" unicode="&#x2019;" horiz-adv-x="277" 
d="M128 539h-63v147h146v-123l-42 -168h-73q10 48 32 144z" />
    <glyph glyph-name="quotesinglbase" unicode="&#x201a;" horiz-adv-x="277" 
d="M128 0h-63v147h146v-123l-42 -168h-73q10 48 32 144z" />
    <glyph glyph-name="quotedblleft" unicode="&#x201c;" horiz-adv-x="472" 
d="M148 542h63v-147h-146v123l42 168h73q-10 -48 -32 -144zM343 542h63v-147h-146v123l42 168h73q-10 -48 -32 -144z" />
    <glyph glyph-name="quotedblright" unicode="&#x201d;" horiz-adv-x="472" 
d="M128 539h-63v147h146v-123l-42 -168h-73q10 48 32 144zM323 539h-63v147h146v-123l-42 -168h-73q10 48 32 144z" />
    <glyph glyph-name="quotedblbase" unicode="&#x201e;" horiz-adv-x="472" 
d="M128 0h-63v147h146v-123l-42 -168h-73q10 48 32 144zM323 0h-63v147h146v-123l-42 -168h-73q10 48 32 144z" />
    <glyph glyph-name="dagger" unicode="&#x2020;" horiz-adv-x="572" 
d="M345 -166h-118l20 577l-207 -19v118l207 -19l-19 195h116l-19 -195l207 19v-118l-207 19z" />
    <glyph glyph-name="daggerdbl" unicode="&#x2021;" horiz-adv-x="572" 
d="M531 1q-18 2 -27 2l-179 17l18 -195h-115q11 119 19 195q-69 -7 -207 -19v117l207 -18q-4 26 -10 80l-9 76q11 97 19 155q-69 -7 -207 -19v118q69 -7 207 -19l-19 195h115l-18 -195q18 2 27 2l179 17v-118l-206 19l18 -155l-18 -156l206 18v-117z" />
    <glyph glyph-name="bullet" unicode="&#x2022;" horiz-adv-x="544" 
d="M410.5 262q-21.5 -37 -58.5 -59t-81 -22t-80.5 22t-58 59t-21.5 81t21.5 81.5t58 59t80.5 21.5t81 -21.5t58.5 -59t21.5 -81.5t-21.5 -81z" />
    <glyph glyph-name="ellipsis" unicode="&#x2026;" horiz-adv-x="874" 
d="M220 147v-147h-147v147h147zM510 147v-147h-146v147h146zM800 147v-147h-146v147h146z" />
    <glyph glyph-name="perthousand" unicode="&#x2030;" horiz-adv-x="1080" 
d="M119 0l419 686h80l-416 -686h-83zM268 371.5q-35 -35.5 -87 -35.5h-15q-52 0 -87 35.5t-35 86.5v105q0 51 35 86.5t87 35.5h15q52 0 87 -35.5t35 -86.5v-105q0 -51 -35 -86.5zM208.5 608q-13.5 14 -34.5 14t-35 -14t-14 -35v-124q0 -21 13.5 -35t35.5 -14q21 0 34.5 14
t13.5 35v124q0 21 -13.5 35zM658 34.5q-35 -35.5 -87 -35.5h-15q-52 0 -87 35.5t-35 86.5v105q0 51 35 86.5t87 35.5h15q52 0 87 -35.5t35 -86.5v-105q0 -51 -35 -86.5zM995 34.5q-35 -35.5 -88 -35.5h-14q-52 0 -87 35.5t-35 86.5v105q0 51 35 86.5t87 35.5h14
q53 0 88 -35.5t35 -86.5v-105q0 -51 -35 -86.5zM598.5 270.5q-13.5 14.5 -34.5 14.5t-35 -14.5t-14 -35.5v-124q0 -21 14 -35t35 -14t34.5 14t13.5 35v124q0 21 -13.5 35.5zM935.5 270.5q-13.5 14.5 -35.5 14.5q-21 0 -34.5 -14.5t-13.5 -35.5v-124q0 -21 13.5 -35t34.5 -14
q22 0 35.5 14t13.5 35v124q0 21 -13.5 35.5z" />
    <glyph glyph-name="guilsinglleft" unicode="&#x2039;" horiz-adv-x="277" 
d="M47 337l121 174h62l-89 -174l89 -174h-62z" />
    <glyph glyph-name="guilsinglright" unicode="&#x203a;" horiz-adv-x="277" 
d="M136 337l-89 174h62l121 -174l-121 -174h-62z" />
    <glyph glyph-name="fraction" unicode="&#x2044;" horiz-adv-x="194" 
d="M-151 0l420 686h71l-417 -686h-74z" />
    <glyph glyph-name="Euro" unicode="&#x20ac;" horiz-adv-x="582" 
d="M125 449q19 82 65 136.5t107.5 80.5t129.5 26q55 0 113 -13v-125q-48 13 -89 13q-57 0 -104 -30t-69 -88h167v-78h-184q-1 -9 -1 -29q0 -22 1 -32h184v-79h-164q25 -57 74 -85t108 -28q35 0 77 19v-129q-56 -16 -95 -16q-112 0 -201 55.5t-119 183.5h-95v79h84v61h-84v78
h95z" />
    <glyph glyph-name="uni2113" unicode="&#x2113;" horiz-adv-x="505" 
d="M408 299q-65 -64 -173 -69v-54q0 -47 22.5 -68t59.5 -21q39 0 97 24v-91q-25 -14 -63 -22.5t-79 -8.5q-183 0 -183 174v67h-70v86h70v173q0 100 55 154.5t144 54.5q87 0 136 -52t49 -148v-24q0 -111 -65 -175zM343.5 359.5q37.5 39.5 37.5 112.5v22q0 46 -20 71t-52 25
q-34 0 -54 -26t-20 -75v-173q71 4 108.5 43.5z" />
    <glyph glyph-name="trademark" unicode="&#x2122;" horiz-adv-x="904" 
d="M241 288h-93v320h-120v78h332v-78h-119v-320zM775 586l-2 -3q-8 -26 -53 -160q-16 -45 -46 -135h-101q-53 163 -97 293l-2 3q0 -198 1 -296h-85v398h149l89 -267l91 267h149v-398h-93v298z" />
    <glyph glyph-name="uni2126" unicode="&#x2126;" horiz-adv-x="724" 
d="M566 111l31 5q44 6 67 10h23v-126h-284v67q60 17 80.5 69t20.5 153v92q0 97 -35 145t-107 48q-76 0 -108.5 -48t-32.5 -145v-92q0 -100 20 -152.5t80 -69.5v-67h-285v126h23l21 -3l78 -12q-102 91 -102 236v35q0 97 38 167.5t103.5 107.5t146.5 37h36q81 0 146.5 -37
t103.5 -107.5t38 -167.5v-39q0 -140 -102 -232z" />
    <glyph glyph-name="estimated" unicode="&#x212e;" horiz-adv-x="730" 
d="M530.5 656q71.5 -40 110.5 -115t39 -178v-56h-456v-194q57 -45 143 -45q64 0 115 24t81 72l71 -48q-42 -61 -110.5 -93.5t-156.5 -32.5q-95 0 -167 40t-111 115.5t-39 178.5v38q0 103 39 178.5t110.5 115.5t165.5 40t165.5 -40zM224 382h281v194q-55 43 -140 43t-141 -45
v-192z" />
    <glyph glyph-name="partialdiff" unicode="&#x2202;" horiz-adv-x="600" 
d="M311 696q68 0 123.5 -31t87.5 -86t32 -124v-225q0 -69 -32.5 -124t-88.5 -85.5t-125 -30.5h-18q-69 0 -125 29.5t-88 82.5t-32 122q0 65 29 112.5t79 72.5t112 25q39 0 78 -16.5t65 -46.5v103q0 24 -14.5 48.5t-39 40t-52.5 15.5h-120v118h129zM376 309q-32 30 -80 30
q-45 0 -76 -30t-31 -74v-30q0 -44 31.5 -74t79.5 -30q46 0 77 30t31 74v30q0 44 -32 74z" />
    <glyph glyph-name="uni2206" unicode="&#x2206;" horiz-adv-x="700" 
d="M289 686h121l229 -607v-79h-578v79zM523 92l-173 469l-173 -469h346z" />
    <glyph glyph-name="product" unicode="&#x220f;" horiz-adv-x="818" 
d="M679 -100h-158v681h-225v-681h-158v681h-116v138h775v-138h-118v-681z" />
    <glyph glyph-name="summation" unicode="&#x2211;" horiz-adv-x="643" 
d="M23 -9l266 318l-254 308v102h568v-135h-343v-4l211 -253l-234 -281v-4h388v-142h-602v91z" />
    <glyph glyph-name="minus" unicode="&#x2212;" horiz-adv-x="625" 
d="M568 337v-120h-512v120h512z" />
    <glyph glyph-name="uni2215" unicode="&#x2215;" horiz-adv-x="194" 
d="M-151 0l420 686h71l-417 -686h-74z" />
    <glyph glyph-name="uni2219" unicode="&#x2219;" horiz-adv-x="277" 
d="M211 362v-148h-146v148h146z" />
    <glyph glyph-name="radical" unicode="&#x221a;" horiz-adv-x="683" 
d="M440 -150h-125q-120 288 -179 432l-81 -33l-27 76l200 84q12 -33 38 -99q84 -221 113 -309q40 159 91 354t70 268q36 132 53 198h114z" />
    <glyph glyph-name="infinity" unicode="&#x221e;" horiz-adv-x="812" 
d="M740 189q-24 -42 -63.5 -64.5t-84.5 -22.5q-47 0 -93.5 25t-94.5 89q-46 -56 -89.5 -85t-100.5 -29q-44 0 -82.5 22.5t-61.5 63t-23 92.5q0 53 23 94.5t63 64.5t90 23q56 0 101 -28.5t87 -83.5l16 17q41 45 77.5 70t90.5 25q47 0 85.5 -22t61 -62t22.5 -91q0 -56 -24 -98
zM295 209.5q34 26.5 66 66.5l-12 18q-28 43 -58.5 65.5t-70.5 22.5t-65.5 -28t-25.5 -74q0 -40 27 -68.5t67 -28.5q38 0 72 26.5zM518.5 353.5q-33.5 -28.5 -66.5 -70.5q45 -58 75.5 -79t66.5 -21q39 0 63 30.5t24 66.5q0 45 -25.5 73.5t-66.5 28.5q-37 0 -70.5 -28.5z" />
    <glyph glyph-name="integral" unicode="&#x222b;" horiz-adv-x="355" 
d="M168.5 729q54.5 21 135.5 21v-58q-30 0 -58 -11t-28 -38q4 -100 15.5 -392t11.5 -389q0 -70 -54 -91t-135 -21v59q30 0 57.5 11t27.5 39q-4 100 -15.5 391t-11.5 388q0 70 54.5 91z" />
    <glyph glyph-name="approxequal" unicode="&#x2248;" horiz-adv-x="714" 
d="M615 335.5q-24 -20.5 -60.5 -38t-78.5 -17.5q-28 0 -54 8.5t-63 24.5q-40 17 -66 25t-55 8q-42 0 -78.5 -17.5t-60.5 -38t-24 -22.5v105q0 2 24 22.5t60.5 38t78.5 17.5q28 0 54 -8.5t63 -24.5q40 -17 66 -25t55 -8q42 0 78.5 17.5t60.5 38t24 22.5v-105q0 -2 -24 -22.5z
M615 120.5q-24 -20.5 -60.5 -38t-78.5 -17.5q-28 0 -54 8.5t-63 24.5q-40 17 -66 25t-55 8q-42 0 -78.5 -17.5t-60.5 -38t-24 -22.5v105q0 2 24 22.5t60.5 38t78.5 17.5q28 0 54 -8.5t63 -24.5q40 -17 66 -25t55 -8q42 0 78.5 17.5t60.5 38t24 22.5v-105q0 -2 -24 -22.5z
" />
    <glyph glyph-name="notequal" unicode="&#x2260;" horiz-adv-x="600" 
d="M553 415v-106h-167l-77 -110h244v-106h-313l-65 -93h-96l64 93h-97v106h168l54 78q7 10 13 18t10 14h-245v106h315l67 96h93l-66 -96h98z" />
    <glyph glyph-name="lessequal" unicode="&#x2264;" horiz-adv-x="600" 
d="M555 520v-115l-388 -83q141 -31 224 -48t107 -22l57 -12v-114l-509 135v123zM555 105v-105h-510v105h510z" />
    <glyph glyph-name="greaterequal" unicode="&#x2265;" horiz-adv-x="600" 
d="M45 126v114q97 20 194 40.5t194 41.5l-388 83v115l509 -136v-123zM45 0v105h510v-105h-510z" />
    <glyph glyph-name="lozenge" unicode="&#x25ca;" horiz-adv-x="568" 
d="M55 343l168 343h121l168 -343l-168 -343h-121zM231 478q-44 -90 -67 -135l121 -246q39 82 119 246q-67 136 -119 245z" />
    <glyph glyph-name="caron.alt" horiz-adv-x="277" 
d="M128 539h-63v147h146v-123l-42 -168h-73q10 48 32 144z" />
    </font>
</defs>
</svg>
